Shadow.and.Bone.S01.1080p.NF. Full Torrent Magnet Download

Download Torrent Shadow.and.Bone.S01.1080p.NF. Movie Full in HD Result. Movie Shadow.and.Bone.S01.1080p.NF. Torrent Download full. Movie Shadow.and.Bone.S01.1080p.NF. torrent Magnet Download Full. Shadow.and.Bone.S01.1080p.NF. Full Movie Torrent Download And Magnet Download For your PC And Mobiles. Latest Movie Shadow.and.Bone.S01.1080p.NF. Download Link In Bottom.

Torrent And Magnet Links Below

Quote:

THIS RELEASE IS HDR

Code:

Video

ID : 1

Format : HEVC

Format/Info : High Efficiency Video Coding

Format profile : Main [email protected]@Main

HDR format : SMPTE ST 2086, HDR10 compatible

Codec ID : V_MPEGH/ISO/HEVC

Duration : 57 min 5 s

Bit rate : 4 190 kb/s

Width : 1 920 pixels

Height : 1 080 pixels

Display aspect ratio : 16:9

Frame rate mode : Constant

Frame rate : 23.976 (24000/1001) FPS

Color space : YUV

Chroma subsampling : 4:2:0 (Type 2)

Bit depth : 10 bits

Bits/(Pixel*Frame) : 0.084

Stream size : 1.67 GiB (84%)

Default : Yes

Forced : No

Color range : Limited

Color primaries : BT.2020

Transfer characteristics : PQ

Matrix coefficients : BT.2020 non-constant

Mastering display color primaries : Display P3

Mastering display luminance : min: 0.0001 cd/m2, max: 1000 cd/m2

Maximum Content Light Level : 1180 cd/m2

Maximum Frame-Average Light Level : 260 cd/m2

Audio

ID : 2

Format : E-AC-3 JOC

Format/Info : Enhanced AC-3 with Joint Object Coding

Commercial name : Dolby Digital Plus with Dolby Atmos

Codec ID : A_EAC3

Duration : 58 min 22 s

Bit rate mode : Constant

Bit rate : 768 kb/s

Channel(s) : 6 channels

Channel layout : L R C LFE Ls Rs

Sampling rate : 48.0 kHz

Frame rate : 31.250 FPS (1536 SPF)

Compression mode : Lossy

Stream size : 321 MiB (16%)

Language : English

Service kind : Complete Main

Default : Yes

Forced : No

Complexity index : 16

Number of dynamic objects : 15

Bed channel count : 1 channel

Bed channel configuration : LFE

Text #1

ID : 3

Format : UTF-8

Codec ID : S_TEXT/UTF8

Codec ID/Info : UTF-8 Plain Text

Duration : 52 min 36 s

Bit rate : 52 b/s

Count of elements : 658

Stream size : 20.4 KiB (0%)

Title : English (SDH)

Language : English

Default : No

Forced : No

Text #2

ID : 4

Format : UTF-8

Codec ID : S_TEXT/UTF8

Codec ID/Info : UTF-8 Plain Text

Duration : 56 min 43 s

Bit rate : 72 b/s

Count of elements : 554

Stream size : 29.9 KiB (0%)

Title : العربية

Language : Arabic

Default : No

Forced : No

Text #3

ID : 5

Format : UTF-8

Codec ID : S_TEXT/UTF8

Codec ID/Info : UTF-8 Plain Text

Duration : 56 min 43 s

Bit rate : 66 b/s

Count of elements : 554

Stream size : 27.6 KiB (0%)

Title : Български

Language : Bulgarian

Default : No

Forced : No

Text #4

ID : 6

Format : UTF-8

Codec ID : S_TEXT/UTF8

Codec ID/Info : UTF-8 Plain Text

Duration : 56 min 43 s

Bit rate : 39 b/s

Count of elements : 554

Stream size : 16.5 KiB (0%)

Title : Čeština

Language : Czech

Default : No

Forced : No

Text #5

ID : 7

Format : UTF-8

Codec ID : S_TEXT/UTF8

Codec ID/Info : UTF-8 Plain Text

Duration : 56 min 43 s

Bit rate : 38 b/s

Count of elements : 554

Stream size : 16.2 KiB (0%)

Title : Dansk

Language : Danish

Default : No

Forced : No

Text #6

ID : 8

Format : UTF-8

Codec ID : S_TEXT/UTF8

Codec ID/Info : UTF-8 Plain Text

Duration : 56 min 43 s

Bit rate : 38 b/s

Count of elements : 554

Stream size : 16.1 KiB (0%)

Title : Deutsch

Language : German

Default : No

Forced : No

Text #7

ID : 9

Format : UTF-8

Codec ID : S_TEXT/UTF8

Codec ID/Info : UTF-8 Plain Text

Duration : 56 min 43 s

Bit rate : 73 b/s

Count of elements : 554

Stream size : 30.6 KiB (0%)

Title : Ελληνικά

Language : Greek

Default : No

Forced : No

Text #8

ID : 10

Format : UTF-8

Codec ID : S_TEXT/UTF8

Codec ID/Info : UTF-8 Plain Text

Duration : 56 min 43 s

Bit rate : 41 b/s

Count of elements : 554

Stream size : 17.2 KiB (0%)

Title : Español

Language : Spanish

Default : No

Forced : No

Text #9

ID : 11

Format : UTF-8

Codec ID : S_TEXT/UTF8

Codec ID/Info : UTF-8 Plain Text

Duration : 56 min 43 s

Bit rate : 39 b/s

Count of elements : 554

Stream size : 16.3 KiB (0%)

Title : Español

Language : Spanish

Default : No

Forced : No

Text #10

ID : 12

Format : UTF-8

Codec ID : S_TEXT/UTF8

Codec ID/Info : UTF-8 Plain Text

Duration : 56 min 43 s

Bit rate : 40 b/s

Count of elements : 554

Stream size : 16.7 KiB (0%)

Title : Suomi

Language : Finnish

Default : No

Forced : No

Text #11

ID : 13

Format : UTF-8

Codec ID : S_TEXT/UTF8

Codec ID/Info : UTF-8 Plain Text

Duration : 56 min 43 s

Bit rate : 41 b/s

Count of elements : 545

Stream size : 17.3 KiB (0%)

Title : Français

Language : French

Default : No

Forced : No

Text #12

ID : 14

Format : UTF-8

Codec ID : S_TEXT/UTF8

Codec ID/Info : UTF-8 Plain Text

Duration : 56 min 43 s

Bit rate : 68 b/s

Count of elements : 554

Stream size : 28.3 KiB (0%)

Title : עברית

Language : Hebrew

Default : No

Forced : No

Text #13

ID : 15

Format : UTF-8

Codec ID : S_TEXT/UTF8

Codec ID/Info : UTF-8 Plain Text

Duration : 56 min 43 s

Bit rate : 37 b/s

Count of elements : 551

Stream size : 15.6 KiB (0%)

Title : Hrvatski

Language : Croatian

Default : No

Forced : No

Text #14

ID : 16

Format : UTF-8

Codec ID : S_TEXT/UTF8

Codec ID/Info : UTF-8 Plain Text

Duration : 56 min 43 s

Bit rate : 39 b/s

Count of elements : 552

Stream size : 16.5 KiB (0%)

Title : Magyar

Language : Hungarian

Default : No

Forced : No

Text #15

ID : 17

Format : UTF-8

Codec ID : S_TEXT/UTF8

Codec ID/Info : UTF-8 Plain Text

Duration : 56 min 43 s

Bit rate : 38 b/s

Count of elements : 554

Stream size : 16.1 KiB (0%)

Title : Bahasa Indonesia

Language : Indonesian

Default : No

Forced : No

Text #16

ID : 18

Format : UTF-8

Codec ID : S_TEXT/UTF8

Codec ID/Info : UTF-8 Plain Text

Duration : 56 min 43 s

Bit rate : 40 b/s

Count of elements : 553

Stream size : 16.9 KiB (0%)

Title : Italiano

Language : Italian

Default : No

Forced : No

Text #17

ID : 19

Format : UTF-8

Codec ID : S_TEXT/UTF8

Codec ID/Info : UTF-8 Plain Text

Duration : 56 min 43 s

Bit rate : 39 b/s

Count of elements : 530

Stream size : 16.3 KiB (0%)

Title : 日本語

Language : Japanese

Default : No

Forced : No

Text #18

ID : 20

Format : UTF-8

Codec ID : S_TEXT/UTF8

Codec ID/Info : UTF-8 Plain Text

Duration : 56 min 43 s

Bit rate : 55 b/s

Count of elements : 554

Stream size : 23.0 KiB (0%)

Title : 한국어

Language : Korean

Default : No

Forced : No

Text #19

ID : 21

Format : UTF-8

Codec ID : S_TEXT/UTF8

Codec ID/Info : UTF-8 Plain Text

Duration : 56 min 43 s

Bit rate : 41 b/s

Count of elements : 554

Stream size : 17.0 KiB (0%)

Title : Bahasa Malaysia

Language : Malay

Default : No

Forced : No

Text #20

ID : 22

Format : UTF-8

Codec ID : S_TEXT/UTF8

Codec ID/Info : UTF-8 Plain Text

Duration : 56 min 43 s

Bit rate : 38 b/s

Count of elements : 554

Stream size : 16.0 KiB (0%)

Title : Norsk Bokmål

Language : Norwegian Bokmal

Default : No

Forced : No

Text #21

ID : 23

Format : UTF-8

Codec ID : S_TEXT/UTF8

Codec ID/Info : UTF-8 Plain Text

Duration : 56 min 43 s

Bit rate : 39 b/s

Count of elements : 533

Stream size : 16.3 KiB (0%)

Title : Nederlands

Language : Dutch

Default : No

Forced : No

Text #22

ID : 24

Format : UTF-8

Codec ID : S_TEXT/UTF8

Codec ID/Info : UTF-8 Plain Text

Duration : 56 min 43 s

Bit rate : 39 b/s

Count of elements : 551

Stream size : 16.3 KiB (0%)

Title : Polski

Language : Polish

Default : No

Forced : No

Text #23

ID : 25

Format : UTF-8

Codec ID : S_TEXT/UTF8

Codec ID/Info : UTF-8 Plain Text

Duration : 56 min 43 s

Bit rate : 39 b/s

Count of elements : 553

Stream size : 16.2 KiB (0%)

Title : Português

Language : Portuguese

Default : No

Forced : No

Text #24

ID : 26

Format : UTF-8

Codec ID : S_TEXT/UTF8

Codec ID/Info : UTF-8 Plain Text

Duration : 56 min 43 s

Bit rate : 38 b/s

Count of elements : 554

Stream size : 16.1 KiB (0%)

Title : Português (Brasil)

Language : Portuguese

Default : No

Forced : No

Text #25

ID : 27

Format : UTF-8

Codec ID : S_TEXT/UTF8

Codec ID/Info : UTF-8 Plain Text

Duration : 56 min 43 s

Bit rate : 44 b/s

Count of elements : 554

Stream size : 18.6 KiB (0%)

Title : Română

Language : Romanian

Default : No

Forced : No

Text #26

ID : 28

Format : UTF-8

Codec ID : S_TEXT/UTF8

Codec ID/Info : UTF-8 Plain Text

Duration : 56 min 43 s

Bit rate : 67 b/s

Count of elements : 554

Stream size : 28.1 KiB (0%)

Title : Русский

Language : Russian

Default : No

Forced : No

Text #27

ID : 29

Format : UTF-8

Codec ID : S_TEXT/UTF8

Codec ID/Info : UTF-8 Plain Text

Duration : 56 min 43 s

Bit rate : 39 b/s

Count of elements : 554

Stream size : 16.4 KiB (0%)

Title : Svenska

Language : Swedish

Default : No

Forced : No

Text #28

ID : 30

Format : UTF-8

Codec ID : S_TEXT/UTF8

Codec ID/Info : UTF-8 Plain Text

Duration : 56 min 43 s

Bit rate : 114 b/s

Count of elements : 554

Stream size : 47.5 KiB (0%)

Title : ไทย

Language : Thai

Default : No

Forced : No

Text #29

ID : 31

Format : UTF-8

Codec ID : S_TEXT/UTF8

Codec ID/Info : UTF-8 Plain Text

Duration : 56 min 43 s

Bit rate : 41 b/s

Count of elements : 553

Stream size : 17.2 KiB (0%)

Title : Türkçe

Language : Turkish

Default : No

Forced : No

Text #30

ID : 32

Format : UTF-8

Codec ID : S_TEXT/UTF8

Codec ID/Info : UTF-8 Plain Text

Duration : 56 min 43 s

Bit rate : 68 b/s

Count of elements : 554

Stream size : 28.5 KiB (0%)

Title : Українська

Language : Ukrainian

Default : No

Forced : No

Text #31

ID : 33

Format : UTF-8

Codec ID : S_TEXT/UTF8

Codec ID/Info : UTF-8 Plain Text

Duration : 56 min 43 s

Bit rate : 57 b/s

Count of elements : 552

Stream size : 24.0 KiB (0%)

Title : Tiếng Việt

Language : Vietnamese

Default : No

Forced : No

Text #32

ID : 34

Format : UTF-8

Codec ID : S_TEXT/UTF8

Codec ID/Info : UTF-8 Plain Text

Duration : 56 min 43 s

Bit rate : 47 b/s

Count of elements : 554

Stream size : 19.7 KiB (0%)

Title : 中文(简体)

Language : Chinese

Default : No

Forced : No

Text #33

ID : 35

Format : UTF-8

Codec ID : S_TEXT/UTF8

Codec ID/Info : UTF-8 Plain Text

Duration : 56 min 43 s

Bit rate : 43 b/s

Count of elements : 554

Stream size : 18.1 KiB (0%)

Title : 中文(繁體)

Language : Chinese

Default : No

Forced : No

Shadow.and.Bone.S01.1080p.NF.Download Torrent Magnet

#ShadowandBoneS011080pNF