Sex.And.Lucía.2001.1080p.BluR Full Torrent Magnet Download

Download Torrent Sex.And.Lucía.2001.1080p.BluR Movie Full in HD Result. Movie Sex.And.Lucía.2001.1080p.BluR Torrent Download full. Movie Sex.And.Lucía.2001.1080p.BluR torrent Magnet Download Full. Sex.And.Lucía.2001.1080p.BluR Full Movie Torrent Download And Magnet Download For your PC And Mobiles. Latest Movie Sex.And.Lucía.2001.1080p.BluR Download Link In Bottom.

Torrent And Magnet Links Below

Quote:

*****************************************************************

*******************SCREENSHOTS(Click to enlarge)*******************

*******************************MEDIAINFO****************************

18+.Sex.And.Lucía.2001.1080p.BluRay.x264.AAC5.1.LLG.mp4

Format : MPEG-4

Format profile : Base Media

Codec ID : isom (isom/iso2/avc1/mp41)

File size : 2.11 GiB

Duration : 2 h 7 min

Overall bit rate mode : Variable

Overall bit rate : 2 359 kb/s

Writing application : Lavf58.29.100

Video

ID : 1

Format : AVC

Format/Info : Advanced Video Codec

Format profile : [email protected]
Format settings : CABAC / 1 Ref Frames

Format settings, CABAC : Yes

Format settings, Reference frames : 1 frame

Codec ID : avc1

Codec ID/Info : Advanced Video Coding

Duration : 2 h 7 min

Bit rate mode : Variable

Bit rate : 1 971 kb/s

Maximum bit rate : 6 000 kb/s

Width : 1 920 pixels

Height : 816 pixels

Display aspect ratio : 2.35:1

Frame rate mode : Constant

Frame rate : 23.976 (23976/1000) FPS

Color space : YUV

Chroma subsampling : 4:2:0

Bit depth : 8 bits

Scan type : Progressive

Bits/(Pixel*Frame) : 0.052

Stream size : 1.76 GiB (84%)

Codec configuration box : avcC

Audio

ID : 2

Format : AAC LC

Codec ID : mp4a-40-2

Duration : 2 h 7 min

Bit rate mode : Constant

Bit rate : 384 kb/s

Channel(s) : 6 channels

Channel layout : C L R Ls Rs LFE

Sampling rate : 48.0 kHz

Frame rate : 46.875 FPS (1024 SPF)

Compression mode : Lossy

Stream size : 352 MiB (16%)

Default : Yes

Alternate group : 1

********************************************************

Sex.And.Lucía.2001.1080p.BluRDownload Torrent Magnet

#SexAndLucía20011080pBluR