Serenity 2005 Bonus BR EAC3 V Full Torrent Magnet Download

Download Torrent Serenity 2005 Bonus BR EAC3 V Movie Full in HD Result. Movie Serenity 2005 Bonus BR EAC3 V Torrent Download full. Movie Serenity 2005 Bonus BR EAC3 V torrent Magnet Download Full. Serenity 2005 Bonus BR EAC3 V Full Movie Torrent Download And Magnet Download For your PC And Mobiles. Latest Movie Serenity 2005 Bonus BR EAC3 V Download Link In Bottom.

Torrent And Magnet Links Below

______________________________________________________________________________________________________________
Serenity 2005
Bluray · 1080p x265 10bits · DD+ 5.1 VFF VFQ ENG
More Bonus
¯¯¯¯¯¯¯¯¯¯¯¯¯¯¯¯¯¯¯¯¯¯¯¯¯¯¯¯¯¯¯¯¯¯¯¯¯¯¯¯¯¯¯¯¯¯¯¯¯¯¯¯¯¯¯¯¯¯¯¯¯¯¯¯¯¯¯¯¯¯¯¯¯¯¯¯¯¯¯¯

Year : 2005

Country : United States

Original and English Title : Serenity

French Title : Serenity L’ultime rebellion

Director : Joss Whedon
Music from : David Newman

Acteurs : Nathan Fillion, Gina Torres, Alan Tudyk, Morena Baccarin, Adam Baldwin, Jewel Staite, Sean Maher, Summer Glau, Ron Glass

David Krumholtz, Chiwetel Ejiofor

Genre : Sci-Fi, Action, Western

Certificate : All public
Budget : 39 000 000 $ · Recipe : 38 851 952 $ · ratio : 100 %

Link : Allociné 3,1 /5 · IMDB 7,9 /10 · TMDB 75 % · SensCritique 6,5 /10 · Wiki · Bande Annonce

French Plot
Les hommes ont fui la terre pour un nouveau système constituer de dizaines de planètes et des centaines de lunes. Les planètes terraformées centrales les plus riches forment l’Alliance qui ne laisse que peu de place aux autres sur lesquelles la vie est difficile. Le capitaine Malcolm Reynolds est un vétéran endurci par une guerre perdue contre l’Alliance. À bord du Serenity , lui et son équipage tente de survivre en acceptant des contrats plus ou moins légaux. C’est alors qu’ils recueillent Simon et Ryvers Tam . Cette dernière semble détenir de noir secret sur les agissements de l’Alliance

Bonus
Opening Bluray 1 mn – 20,80 Mib – 1920×1080 HEVC 10Bits – MUSIQUE – dca89f2b
Making of 19 mn – 132,0 Mib – 720×480 HEVC 10Bits – VOSTFR – 4f58dc7c
Firefly by Joss Whedow 3 mn – 8,04 Mib – 720×480 HEVC 10Bits – VOSTFR – b28f5191
Firefly story by Joss Whedon 4 mn – 22,60 Mib – 720×480 HEVC 10Bits – VOSTFR – 98b8bde8
Fruity Oaty 1 mn – 8,48 Mib – 720×480 HEVC 10Bits – VOSTFR – edfe30fc
Jack Green 3 mn – 25,10 Mib – 720×480 HEVC 10Bits – VOSTFR – 10f304f6
The Mule skiff Chase 6 mn – 48,60 Mib – 720×480 HEVC 10Bits – VOSTFR – f2a9f79d
The ship Serenity 4 mn – 33,60 Mib – 720×480 HEVC 10Bits – VOSTFR – 0808270d
Exended Scenes 6 mn – 22,50 Mib – 720×480 HEVC 10Bits – VOSTFR – af52a662
9 Deleted Scenes 13 mn – 87,60 Mib – 720×480 HEVC 10Bits – VOSTFR – b0ef5229
Betisier 6 mn – 43,20 Mib – 720×480 HEVC 10Bits – VOSTFR – ebf80005
Comic Con San Diego 9 mn – 59,00 Mib – 720×480 HEVC 10Bits – VOSTFR – 7649850e
Interactive 10 mn – 133,0 Mib – 1920×1080 HEVC 10Bits – VOSTFR – 32be76c3
13 bonus, total 644,5 Mib 1 h32 mn


If you enjoy and wish to support, please stay in seeding

Technical Details
¯¯¯¯¯¯¯¯¯¯¯¯¯¯¯¯¯¯¯¯¯¯¯¯¯¯¯¯¯¯¯¯¯¯¯¯¯¯¯¯¯¯¯¯¯¯¯¯¯¯¯¯¯¯¯¯¯¯¯¯¯¯¯¯¯¯¯¯¯¯¯¯¯¯¯¯¯¯¯¯¯¯¯¯¯¯¯¯¯¯¯¯¯¯¯¯¯¯¯¯
Media
Matroska 4,38 Gio 1 h59 mn 5263 Kbps, Total 5,01 Gio 3 h31 mn
Video
HEVC/H265 1920 x818 @23.976 [email protected]@Main 10 bits 3525 Kbps VerySlow
Audio
True French 5.1 EAC3 448 Kbps 48KHz 16bits

Quebec French 5.1 EAC3 448 Kbps 48KHz 16bits

English (OV) 5.1 EAC3 448 Kbps 48KHz 16bits

English Commentary by Joss Whedon 2.0 EAC3 128 Kbps 48KHz 16bits

English Commentary by Joss Whedon and Actors 2.0 EAC3 128 Kbps 48KHz 16bits

Subtitles
True French forced SRT
True French full SRT
True French full PGS
True French Commentary by Joss Whedon PGS
True French Commentary by Joss Whedon and des Acteurs PGS
Quebec French full PGS
English full SDH PGS
English Commentary by Joss Whedon PGS
English Commentary by Joss Whedon and Actors PGS
English Commentary PGS
Chapters
International, True French, English

Screenshot

Origin
Bluray : Video VC-1 1080p 20992 Kbps, VFF 5.1 DTS 768 Kbps, VFQ 5.1 DTS 768 Kbps, Anglais 5.1 DTS-HDMA 4309 Kbps

NFO
¯¯¯¯¯¯¯¯¯¯¯¯¯¯¯¯¯¯¯¯¯¯¯¯¯¯¯¯¯¯¯¯¯¯¯¯¯¯¯¯¯¯¯¯¯¯¯¯¯¯¯¯¯¯¯¯¯¯¯¯¯¯¯¯¯¯¯¯¯¯¯¯¯¯¯¯¯¯¯¯¯¯¯¯¯¯¯¯¯¯¯¯¯¯¯¯¯¯¯¯

General
Complete name : Serenity 2005 BR EAC3 VFF VFQ ENG 1080p x265 10Bits T0M.mkv

Format : Matroska
Format version : Version 4

File size : 4.38 GiB
Duration : 1 h 59 min

Overall bit rate : 5 263 kb/s

Movie name : Serenity L’ultime rebellion (Serenity) 2005 de Joss Whedon avec Nathan Fillion, Gina Torres, Alan Tudyk, Morena Baccarin, Adam Baldwin, Jewel Staite, Sean Maher, Summer Glau, Ron Glass, David Krumholtz, Chiwetel Ejiofor. Tout public (allocine=57920,imdb=tt0379786) T0M
Encoded date : UTC 2017-11-07 00:47:36

Writing application : mkvmerge v8.0.0 (‘Til The Day That I Die’) 64bit

Writing library : libebml v1.3.1 + libmatroska v1.4.2

Cover : Yes

Attachments : Cover.jpg / Cover2.jpg / Cover3.jpg / Map.jpg / Map2.jpg / Map3.jpg / Poster.jpg / Poster2.jpg / Poster3.jpg / Poster4.jpg / Poster5.jpg / Poster6.jpg / Poster7.jpg

Video
ID : 1

Format : HEVC
Format/Info : High Efficiency Video Coding

Format profile : Main [email protected]@Main

Codec ID : V_MPEGH/ISO/HEVC

Duration : 1 h 59 min

Bit rate : 3 525 kb/s

Width : 1 920 pixels

Height : 818 pixels

Display aspect ratio : 2.35:1

Frame rate mode : Constant

Frame rate : 23.976 (24000/1001) FPS

Color space : YUV

Chroma subsampling : 4:2:0

Bit depth : 10 bits

Bits/(Pixel*Frame) : 0.094

Stream size : 2.93 GiB (67%)

Title : Video HEVC 1920×818 @23.976 x265 [email protected]@Main 10bits Q20.5 veryslow 1949mn
Writing library : x265 1.9:[Windows][GCC 4.9.2][64 bit] 10bit

Encoding settings : wpp / ctu=64 / min-cu-size=8 / max-tu-size=32 / tu-intra-depth=3 / tu-inter-depth=3 / me=3 / subme=4 / merange=57 / rect / amp / max-merge=4 / temporal-mvp / no-early-skip / rdpenalty=0 / no-tskip / no-tskip-fast / strong-intra-smoothing / no-lossless / no-cu-lossless / no-constrained-intra / no-fast-intra / open-gop / no-temporal-layers / interlace=0 / keyint=240 / min-keyint=24 / scenecut=40 / rc-lookahead=40 / lookahead-slices=0 / bframes=8 / bframe-bias=0 / b-adapt=2 / ref=5 / limit-refs=1 / limit-modes / weightp / weightb / aq-mode=1 / qg-size=32 / aq-strength=1.00 / cbqpoffs=0 / crqpoffs=0 / rd=6 / psy-rd=2.00 / rdoq-level=2 / psy-rdoq=1.00 / signhide / deblock / sao / no-sao-non-deblock / b-pyramid / cutree / no-intra-refresh / rc=crf / crf=20.5 / qcomp=0.60 / qpmin=0 / qpmax=51 / qpstep=4 / ipratio=1.40 / pbratio=1.30

Default : Yes

Forced : No

Color range : Limited

Color primaries : BT.709

Transfer characteristics : BT.709

Matrix coefficients : BT.709

Audio #1
ID : 2

Format : E-AC-3
Format/Info : Enhanced AC-3

Commercial name : Dolby Digital Plus

Codec ID : A_EAC3

Duration : 1 h 59 min

Bit rate mode : Constant

Bit rate : 448 kb/s

Channel(s) : 6 channels

Channel layout : L R C LFE Ls Rs

Sampling rate : 48.0 kHz

Frame rate : 31.250 FPS (1536 SPF)

Compression mode : Lossy

Delay relative to video : -46 ms

Stream size : 381 MiB (9%)

Title : Français 5.1 EAC3 448kbps 48khz 16bits
Language : French
Service kind : Complete Main

Default : Yes

Forced : No

Audio #2
ID : 3

Format : E-AC-3
Format/Info : Enhanced AC-3

Commercial name : Dolby Digital Plus

Codec ID : A_EAC3

Duration : 1 h 59 min

Bit rate mode : Constant

Bit rate : 448 kb/s

Channel(s) : 6 channels

Channel layout : L R C LFE Ls Rs

Sampling rate : 48.0 kHz

Frame rate : 31.250 FPS (1536 SPF)

Compression mode : Lossy

Delay relative to video : -46 ms

Stream size : 381 MiB (9%)

Title : Québécois 5.1 EAC3 448kbps 48khz 16bits
Language : French
Service kind : Complete Main

Default : No

Forced : No

Audio #3
ID : 4

Format : E-AC-3
Format/Info : Enhanced AC-3

Commercial name : Dolby Digital Plus

Codec ID : A_EAC3

Duration : 1 h 59 min

Bit rate mode : Constant

Bit rate : 448 kb/s

Channel(s) : 6 channels

Channel layout : L R C LFE Ls Rs

Sampling rate : 48.0 kHz

Frame rate : 31.250 FPS (1536 SPF)

Compression mode : Lossy

Delay relative to video : -46 ms

Stream size : 381 MiB (9%)

Title : English 5.1 EAC3 448kbps 48khz 16bits
Language : English
Service kind : Complete Main

Default : No

Forced : No

Audio #4
ID : 5

Format : E-AC-3
Format/Info : Enhanced AC-3

Commercial name : Dolby Digital Plus

Codec ID : A_EAC3

Duration : 1 h 59 min

Bit rate mode : Constant

Bit rate : 128 kb/s

Channel(s) : 2 channels

Channel layout : L R

Sampling rate : 48.0 kHz

Frame rate : 31.250 FPS (1536 SPF)

Compression mode : Lossy

Delay relative to video : -46 ms

Stream size : 109 MiB (2%)

Title : English comment by Joss Whedon 2.0 EAC3 128kbps 48khz 16bits
Language : English
Service kind : Complete Main

Default : No

Forced : No

Audio #5
ID : 6

Format : E-AC-3
Format/Info : Enhanced AC-3

Commercial name : Dolby Digital Plus

Codec ID : A_EAC3

Duration : 1 h 59 min

Bit rate mode : Constant

Bit rate : 128 kb/s

Channel(s) : 2 channels

Channel layout : L R

Sampling rate : 48.0 kHz

Frame rate : 31.250 FPS (1536 SPF)

Compression mode : Lossy

Delay relative to video : -46 ms

Stream size : 109 MiB (2%)

Title : English comment by Joss Whedon and Actors 2.0 EAC3 128kbps 48khz 16bits
Language : English
Service kind : Complete Main

Default : No

Forced : No

Text #1
ID : 7

Format : UTF-8
Codec ID : S_TEXT/UTF8

Codec ID/Info : UTF-8 Plain Text

Duration : 1 h 59 min

Bit rate : 0 b/s

Count of elements : 12

Stream size : 627 Bytes (0%)

Title : Français forcé (Passages)
Language : French
Default : Yes

Forced : Yes

Text #2
ID : 8

Format : UTF-8
Codec ID : S_TEXT/UTF8

Codec ID/Info : UTF-8 Plain Text

Duration : 1 h 59 min

Bit rate : 50 b/s

Count of elements : 1342

Stream size : 43.6 KiB (0%)

Title : Français complet (Tous le film)
Language : French
Default : No

Forced : No

Text #3
ID : 9

Format : PGS
Muxing mode : zlib

Codec ID : S_HDMV/PGS

Codec ID/Info : Picture based subtitle format used on BDs/HD-DVDs

Duration : 1 h 58 min

Bit rate : 8 945 b/s

Count of elements : 2683

Stream size : 7.58 MiB (0%)

Title : Français complet (Tous le film) PGS
Language : French
Default : No

Forced : No

Text #4
ID : 10

Format : PGS
Muxing mode : zlib

Codec ID : S_HDMV/PGS

Codec ID/Info : Picture based subtitle format used on BDs/HD-DVDs

Duration : 1 h 58 min

Bit rate : 20.2 kb/s

Count of elements : 3931

Stream size : 17.2 MiB (0%)

Title : Français commentaire de Joss Whedon PGS
Language : French
Default : No

Forced : No

Text #5
ID : 11

Format : PGS
Muxing mode : zlib

Codec ID : S_HDMV/PGS

Codec ID/Info : Picture based subtitle format used on BDs/HD-DVDs

Duration : 1 h 58 min

Bit rate : 20.6 kb/s

Count of elements : 4748

Stream size : 17.5 MiB (0%)

Title : Français commentaire de Joss Whedon et des Acteurs PGS
Language : French
Default : No

Forced : No

Text #6
ID : 12

Format : PGS
Muxing mode : zlib

Codec ID : S_HDMV/PGS

Codec ID/Info : Picture based subtitle format used on BDs/HD-DVDs

Duration : 1 h 52 min

Bit rate : 10.1 kb/s

Count of elements : 2671

Stream size : 8.12 MiB (0%)

Title : Québécois complet (Tous le film) PGS
Default : No

Forced : No

Text #7
ID : 13

Format : PGS
Muxing mode : zlib

Codec ID : S_HDMV/PGS

Codec ID/Info : Picture based subtitle format used on BDs/HD-DVDs

Duration : 1 h 52 min

Bit rate : 12.2 kb/s

Count of elements : 3288

Stream size : 9.88 MiB (0%)

Title : English full SDH PGS
Language : English
Default : No

Forced : No

Text #8
ID : 14

Format : PGS
Muxing mode : zlib

Codec ID : S_HDMV/PGS

Codec ID/Info : Picture based subtitle format used on BDs/HD-DVDs

Duration : 1 h 53 min

Bit rate : 24.4 kb/s

Count of elements : 4093

Stream size : 19.8 MiB (0%)

Title : English comment by Joss Whedon PGS
Language : English
Default : No

Forced : No

Text #9
ID : 15

Format : PGS
Muxing mode : zlib

Codec ID : S_HDMV/PGS

Codec ID/Info : Picture based subtitle format used on BDs/HD-DVDs

Duration : 1 h 53 min

Bit rate : 29.8 kb/s

Count of elements : 5301

Stream size : 24.1 MiB (1%)

Title : English comment by Joss Whedon and Actors PGS
Language : English
Default : No

Forced : No

Text #10
ID : 16

Format : PGS
Muxing mode : zlib

Codec ID : S_HDMV/PGS

Codec ID/Info : Picture based subtitle format used on BDs/HD-DVDs

Duration : 1 h 54 min

Bit rate : 7 297 b/s

Count of elements : 1346

Stream size : 5.98 MiB (0%)

Title : English comment PGS
Language : English
Default : No

Forced : No

Menu
00:00:00.000 : :01 – 00:00:00 – fr:Une arme vivante – en:Living Weapon

00:05:01.759 : :02 – 00:05:01 – fr:Un monde meilleur – en:A Better World

00:09:32.446 : :03 – 00:09:32 – fr:À bord de la Sérénity – en:Aboard Serenity

00:14:50.097 : :04 – 00:14:50 – fr:Un petit tour – en:Going For a Ride

00:19:50.856 : :05 – 00:19:50 – fr:Reavers – en:Reavers

00:29:14.002 : :06 – 00:29:14 – fr:Déclencheur – en:Triggered

00:36:19.260 : :07 – 00:36:19 – fr:Mr Universe – en:Mr. Universe

00:44:10.272 : :08 – 00:44:10 – fr:Haven – en:Safe Haven

00:49:55.701 : :09 – 00:49:55 – fr:Solution civilisée – en:Civilized Resolution

00:55:45.050 : :10 – 00:55:45 – fr:La menace – en:Posing a Threat

00:59:29.315 : :11 – 00:59:29 – fr:Miranda – en:Miranda

01:04:46.257 : :12 – 01:04:46 – fr:Juste croire – en:Just Believe

01:09:14.733 : :13 – 01:09:14 – fr:Mission suicide – en:Suicide Mission

01:13:34.785 : :14 – 01:13:34 – fr:Le secret – en:Learning the Secret

01:22:39.579 : :15 – 01:22:39 – fr:Entre deux feux – en:Caught in the Middle

01:30:19.580 : :16 – 01:30:19 – fr:Diffusion générale – en:Can’t Stop the Signal

01:36:58.479 : :17 – 01:36:58 – fr:Pour ce que l’on crois – en:Fighting For a Belief

01:45:57.726 : :18 – 01:45:57 – fr:Nouvel ordre – en:Do We Have an Order ?

01:47:38.118 : :19 – 01:47:38 – fr:Ce n’est pas fini – en:It’s Not Over

01:53:22.670 : :20 – 01:53:22 – fr:Générique – en:End Titles

Serenity 2005 Bonus BR EAC3 VDownload Torrent Magnet

#Serenity #Bonus #EAC3