Scooby.Doo.The.Sword.And.The. Full Torrent Magnet Download

Download Torrent Scooby.Doo.The.Sword.And.The. Movie Full in HD Result. Movie Scooby.Doo.The.Sword.And.The. Torrent Download full. Movie Scooby.Doo.The.Sword.And.The. torrent Magnet Download Full. Scooby.Doo.The.Sword.And.The. Full Movie Torrent Download And Magnet Download For your PC And Mobiles. Latest Movie Scooby.Doo.The.Sword.And.The. Download Link In Bottom.

Torrent And Magnet Links Below

https://www.imdb.com/title/tt13676256/


Video

ID : 1

Format : AVC

Format/Info : Advanced Video Codec

Format profile : [email protected]
Format settings : CABAC / 4 Ref Frames

Format settings, CABAC : Yes

Format settings, Reference frames : 4 frames

Codec ID : V_MPEG4/ISO/AVC

Duration : 1 h 16 min

Bit rate : 5 133 kb/s

Width : 1 920 pixels

Height : 1 080 pixels

Display aspect ratio : 16:9

Frame rate mode : Constant

Frame rate : 23.976 (24000/1001) FPS

Color space : YUV

Chroma subsampling : 4:2:0

Bit depth : 8 bits

Scan type : Progressive

Bits/(Pixel*Frame) : 0.103

Stream size : 2.75 GiB (93%)

Language : English

Default : Yes

Forced : No

Color range : Limited

Color primaries : BT.709

Transfer characteristics : BT.709

Matrix coefficients : BT.709

Audio

ID : 2

Format : AC-3

Format/Info : Audio Coding 3

Commercial name : Dolby Digital

Codec ID : A_AC3

Duration : 1 h 16 min

Bit rate mode : Constant

Bit rate : 384 kb/s

Channel(s) : 6 channels

Channel layout : L R C LFE Ls Rs

Sampling rate : 48.0 kHz

Frame rate : 31.250 FPS (1536 SPF)

Compression mode : Lossy

Stream size : 210 MiB (7%)

Title : DD 5.1

Language : English

Service kind : Complete Main

Default : Yes

Forced : No

Text

ID : 3

Format : UTF-8

Codec ID : S_TEXT/UTF8

Codec ID/Info : UTF-8 Plain Text

Duration : 1 h 12 min

Bit rate : 68 b/s

Count of elements : 1015

Stream size : 36.6 KiB (0%)

Language : English

Default : Yes

Forced : No

Scooby.Doo.The.Sword.And.The.Download Torrent Magnet

#ScoobyDooTheSwordAndThe