Saw Ii Unrated 2005 x264 720p Full Torrent Magnet Download

Download Torrent Saw Ii Unrated 2005 x264 720p Movie Full in HD Result. Movie Saw Ii Unrated 2005 x264 720p Torrent Download full. Movie Saw Ii Unrated 2005 x264 720p torrent Magnet Download Full. Saw Ii Unrated 2005 x264 720p Full Movie Torrent Download And Magnet Download For your PC And Mobiles. Latest Movie Saw Ii Unrated 2005 x264 720p Download Link In Bottom.

Torrent And Magnet Links Below

Greets

Admin , Moderator , Noir, Ex0duS5150, theeshiznit, MisterQ, UserHEVC, miok, Silmarillion, Mr. Blue, MaDHeX and many more ;

Join Us On TeleGram

https://t.me/gopisahit

Saw Ii Unrated 2005 x264 720p Esub BluRay Dual Audio English Hindi THE GOPI SAHI

Format : Matroska

Format version : Version 4

File size : 740 MiB

Duration : 1 h 34 min

Overall bit rate : 1 094 kb/s

Movie name : Saw Ii Unrated 2005 GOPI SAHI

Video

ID : 1

Format : AVC

Format/Info : Advanced Video Codec

Format profile : [email protected]
Format settings : CABAC / 5 Ref Frames

Format settings, CABAC : Yes

Format settings, Reference fra : 5 frames

Codec ID : V_MPEG4/ISO/AVC

Duration : 1 h 34 min

Bit rate : 899 kb/s

Width : 1 280 pixels

Height : 720 pixels

Display aspect ratio : 16:9

Frame rate mode : Constant

Frame rate : 23.976 (24000/1001) FPS

Color space : YUV

Chroma subsampling : 4:2:0

Bit depth : 8 bits

Scan type : Progressive

Bits/(Pixel*Frame) : 0.041

Stream size : 607 MiB (82%)

Title : GOPI SAHI

Writing library : x264 core 157 r2935 545de2f

Audio #1

ID : 2

Format : AAC LC

Format/Info : Advanced Audio Codec Low Complexity

Codec ID : A_AAC-2

Duration : 1 h 34 min

Bit rate : 96.0 kb/s

Channel(s) : 2 channels

Channel layout : L R

Sampling rate : 48.0 kHz

Frame rate : 46.875 FPS (1024 SPF)

Compression mode : Lossy

Delay relative to video : -146 ms

Stream size : 65.3 MiB (9%)

Title : GOPI SAHI

Language : Hindi

Default : Yes

Forced : No

Audio #2

ID : 3

Format : AAC LC

Format/Info : Advanced Audio Codec Low Complexity

Codec ID : A_AAC-2

Duration : 1 h 34 min

Bit rate : 96.0 kb/s

Channel(s) : 2 channels

Channel layout : L R

Sampling rate : 48.0 kHz

Frame rate : 46.875 FPS (1024 SPF)

Compression mode : Lossy

Delay relative to video : -146 ms

Stream size : 65.2 MiB (9%)

Title : GOPI SAHI

Language : English

Default : No

Forced : No

Text

Language : English

Saw Ii Unrated 2005 x264 720pDownload Torrent Magnet

#Unrated #x264 #720p