SAS.Red.Notice.2021.HDRip.Xvi Full Torrent Magnet Download

Download Torrent SAS.Red.Notice.2021.HDRip.Xvi Movie Full in HD Result. Movie SAS.Red.Notice.2021.HDRip.Xvi Torrent Download full. Movie SAS.Red.Notice.2021.HDRip.Xvi torrent Magnet Download Full. SAS.Red.Notice.2021.HDRip.Xvi Full Movie Torrent Download And Magnet Download For your PC And Mobiles. Latest Movie SAS.Red.Notice.2021.HDRip.Xvi Download Link In Bottom.

Torrent And Magnet Links Below

SAS.Red.Notice.2021.HDRip.XviD.B4ND1T69

Director: Magnus Martens

Writers: Laurence Malkin (screenplay by), Andy McNab (based on the novel “Red Notice”)

Stars: Sam Heughan, Ruby Rose, Andy Serkis

Plot/Story:

A small army of well trained criminals led by Laszlo Antonov have hijacked the Eurostar deep beneath the English Channel.

General

Complete name : SAS.Red.Notice.2021.HDRip.XviD.B4ND1T69.avi

Format : AVI

Format/Info : Audio Video Interleave

File size : 1.07 GiB

Duration : 1 h 58 min

Overall bit rate : 1 286 kb/s

Subtitles : Yes…Included(HI)

Video

ID : 0

Format : MPEG-4 Visual

Format profile : Advanced [email protected]
Format settings, BVOP : 2

Format settings, QPel : No

Format settings, GMC : No warppoints

Format settings, Matrix : Default (H.263)

Codec ID : XVID

Codec ID/Hint : XviD

Duration : 1 h 58 min

Bit rate : 1 145 kb/s

Width : 720 pixels

Height : 304 pixels

Display aspect ratio : 2.35:1

Frame rate : 25.000 FPS

Color space : YUV

Chroma subsampling : 4:2:0

Bit depth : 8 bits

Scan type : Progressive

Compression mode : Lossy

Bits/(Pixel*Frame) : 0.209

Stream size : 972 MiB (89%)

Writing library : XviD 64

Audio

ID : 1

Format : MPEG Audio

Format version : Version 1

Format profile : Layer 3

Codec ID : 55

Codec ID/Hint : MP3

Duration : 1 h 58 min

Bit rate mode : Constant

Bit rate : 128 kb/s

Channel(s) : 2 channels

Sampling rate : 48.0 kHz

Compression mode : Lossy

Stream size : 109 MiB (10%)

Alignment : Aligned on interleaves

Interleave, duration : 24 ms (0.60 video frame)

Screenshots:









Please Seed For As Long As Possible

Or At Least 1:1 Ratio…Thanks

Enjoy Peeps

SAS.Red.Notice.2021.HDRip.XviDownload Torrent Magnet

#SASRedNotice2021HDRipXvi