SAS.Red.Notice.2021.HDRip.x26 Full Torrent Magnet Download

Download Torrent SAS.Red.Notice.2021.HDRip.x26 Movie Full in HD Result. Movie SAS.Red.Notice.2021.HDRip.x26 Torrent Download full. Movie SAS.Red.Notice.2021.HDRip.x26 torrent Magnet Download Full. SAS.Red.Notice.2021.HDRip.x26 Full Movie Torrent Download And Magnet Download For your PC And Mobiles. Latest Movie SAS.Red.Notice.2021.HDRip.x26 Download Link In Bottom.

Torrent And Magnet Links Below

https://www.imdb.com/title/tt4479380/

A small army of well trained criminals led by Laszlo Antonov have hijacked the Eurostar deep beneath the English Channel

Video

ID : 1

Format : AVC

Format/Info : Advanced Video Codec

Format profile : [email protected]
Format settings : CABAC / 5 Ref Frames

Format settings, CABAC : Yes

Format settings, Reference frames : 5 frames

Codec ID : avc1

Codec ID/Info : Advanced Video Coding

Duration : 1 h 58 min

Bit rate : 1 100 kb/s

Width : 720 pixels

Height : 300 pixels

Display aspect ratio : 2.40:1

Frame rate mode : Constant

Frame rate : 25.000 FPS

Color space : YUV

Chroma subsampling : 4:2:0

Bit depth : 8 bits

Scan type : Progressive

Bits/(Pixel*Frame) : 0.204

Stream size : 934 MiB (81%)

Title : SAS.Red.Notice.2021.HDRip.x264-STUTTERSHIT

Writing library : x264 core 148 r2795M aaa9aa8

Encoding settings : cabac=1 / ref=5 / deblock=1:-1:-1 / analyse=0x3:0x113 / me=umh / subme=9 / psy=1 / psy_rd=1.00:0.15 / mixed_ref=1 / me_range=16 / chroma_me=1 / trellis=2 / 8x8dct=1 / cqm=0 / deadzone=21,11 / fast_pskip=1 / chroma_qp_offset=-3 / threads=24 / lookahead_threads=2 / sliced_threads=0 / nr=0 / decimate=1 / interlaced=0 / bluray_compat=0 / constrained_intra=0 / bframes=3 / b_pyramid=2 / b_adapt=2 / b_bias=0 / direct=3 / weightb=1 / open_gop=0 / weightp=2 / keyint=250 / keyint_min=25 / scenecut=40 / intra_refresh=0 / rc_lookahead=50 / rc=2pass / mbtree=1 / bitrate=1100 / ratetol=1.0 / qcomp=0.60 / qpmin=0 / qpmax=69 / qpstep=4 / cplxblur=20.0 / qblur=0.5 / ip_ratio=1.40 / aq=1:1.00

Encoded date : UTC 2021-03-12 09:03:15

Tagged date : UTC 2021-03-12 09:03:15

Codec configuration box : avcC

Audio

ID : 2

Format : AAC LC

Format/Info : Advanced Audio Codec Low Complexity

Codec ID : mp4a-40-2

Duration : 1 h 58 min

Duration_LastFrame : -11 ms

Bit rate mode : Constant

Bit rate : 256 kb/s

Channel(s) : 2 channels

Channel layout : L R

Sampling rate : 48.0 kHz

Frame rate : 46.875 FPS (1024 SPF)

Compression mode : Lossy

Stream size : 217 MiB (19%)

Title : SAS.Red.Notice.2021.HDRip.x264-STUTTERSHIT

Default : Yes

Alternate group : 1

Encoded date : UTC 2021-03-12 09:03:15

Tagged date : UTC 2021-03-12 09:03:15

SAS.Red.Notice.2021.HDRip.x26Download Torrent Magnet

#SASRedNotice2021HDRipx26