SAS.Red.Notice.2021.1080p.HDR Full Torrent Magnet Download

Download Torrent SAS.Red.Notice.2021.1080p.HDR Movie Full in HD Result. Movie SAS.Red.Notice.2021.1080p.HDR Torrent Download full. Movie SAS.Red.Notice.2021.1080p.HDR torrent Magnet Download Full. SAS.Red.Notice.2021.1080p.HDR Full Movie Torrent Download And Magnet Download For your PC And Mobiles. Latest Movie SAS.Red.Notice.2021.1080p.HDR Download Link In Bottom.

Torrent And Magnet Links Below

https://www.imdb.com/title/tt4479380/

A small army of well trained criminals led by Laszlo Antonov have hijacked the Eurostar deep beneath the English Channel

Video

ID : 1

Format : AVC

Format/Info : Advanced Video Codec

Format profile : [email protected]
Format settings : CABAC / 4 Ref Frames

Format settings, CABAC : Yes

Format settings, Reference frames : 4 frames

Codec ID : V_MPEG4/ISO/AVC

Duration : 1 h 58 min

Bit rate : 6 000 kb/s

Width : 1 920 pixels

Height : 800 pixels

Display aspect ratio : 2.40:1

Frame rate mode : Constant

Frame rate : 25.000 FPS

Color space : YUV

Chroma subsampling : 4:2:0

Bit depth : 8 bits

Scan type : Progressive

Bits/(Pixel*Frame) : 0.156

Stream size : 4.97 GiB (96%)

Writing library : x264 core 159

Encoding settings : cabac=1 / ref=2 / deblock=1:0:0 / analyse=0x3:0x113 / me=hex / subme=6 / psy=1 / psy_rd=1.00:0.00 / mixed_ref=1 / me_range=16 / chroma_me=1 / trellis=1 / 8x8dct=1 / cqm=0 / deadzone=21,11 / fast_pskip=1 / chroma_qp_offset=-2 / threads=24 / lookahead_threads=4 / sliced_threads=0 / nr=0 / decimate=1 / interlaced=0 / bluray_compat=0 / constrained_intra=0 / bframes=3 / b_pyramid=2 / b_adapt=1 / b_bias=0 / direct=1 / weightb=1 / open_gop=0 / weightp=1 / keyint=250 / keyint_min=25 / scenecut=40 / intra_refresh=0 / rc_lookahead=30 / rc=2pass / mbtree=1 / bitrate=6000 / ratetol=1.0 / qcomp=0.60 / qpmin=0 / qpmax=69 / qpstep=4 / cplxblur=20.0 / qblur=0.5 / ip_ratio=1.40 / aq=1:1.00

Language : English

Default : Yes

Forced : No

Audio

ID : 2

Format : AAC LC

Format/Info : Advanced Audio Codec Low Complexity

Codec ID : A_AAC-2

Duration : 1 h 58 min

Bit rate : 256 kb/s

Channel(s) : 2 channels

Channel layout : L R

Sampling rate : 48.0 kHz

Frame rate : 46.875 FPS (1024 SPF)

Compression mode : Lossy

Stream size : 217 MiB (4%)

Language : English

Default : Yes

Forced : No

SAS.Red.Notice.2021.1080p.HDRDownload Torrent Magnet

#SASRedNotice20211080pHDR