San Andreas 2015 Bonus BR EAC Full Torrent Magnet Download

Download Torrent San Andreas 2015 Bonus BR EAC Movie Full in HD Result. Movie San Andreas 2015 Bonus BR EAC Torrent Download full. Movie San Andreas 2015 Bonus BR EAC torrent Magnet Download Full. San Andreas 2015 Bonus BR EAC Full Movie Torrent Download And Magnet Download For your PC And Mobiles. Latest Movie San Andreas 2015 Bonus BR EAC Download Link In Bottom.

Torrent And Magnet Links Below

______________________________________________________________________________________________________________
San Andreas 2015
Bluray · 1080p x265 10bits · DD+ 5.1 VFF VFQ ENG
More Bonus
¯¯¯¯¯¯¯¯¯¯¯¯¯¯¯¯¯¯¯¯¯¯¯¯¯¯¯¯¯¯¯¯¯¯¯¯¯¯¯¯¯¯¯¯¯¯¯¯¯¯¯¯¯¯¯¯¯¯¯¯¯¯¯¯¯¯¯¯¯¯¯¯¯¯¯¯¯¯¯¯

Year : 2015

Country : United States

Original, French and English Title : San Andreas

Director : Brad Peyton
Music from : Andrew Lockington

Acteurs : Dwayne Johnson, Carla Gugino, Alexandra Daddario, Ioan Gruffudd, Archie Panjabi, Paul Giamatti, Hugo Johnstone-Burt

Art Parkinson, Will Yun Lee, Kylie Minogue

Genre : Disaster, Action, Adventure, Dramatic Comedy, Thriller

Certificate : All public
Budget : 110 000 000 $ · Recipe : 510 782 175 $ · ratio : 464 %

Link : Allociné 3,0 /5 · IMDB 6,1 /10 · TMDB 61 % · SensCritique 4,5 /10 · Wiki · Bande Annonce

French Plot
Lorsque la tristement célèbre Faille de San Andreas finit par s’ouvrir, et par provoquer un séisme de magnitude 9 en Californie , un pilote d’hélicoptère de secours en montagne et la femme dont il s’est séparé quittent Los Angeles pour San Francisco dans l’espoir de sauver leur fille unique . Alors qu’ils s’engagent dans ce dangereux périple vers le nord de l’État, pensant que le pire est bientôt derrière eux, ils ne tardent pas à comprendre que la réalité est bien plus effroyable encore…

Bonus
Dwayne Johnson to the Rescue 9 mn – 111,0 Mib – 1920×1080 HEVC 10Bits – VOSTFR – 4c6ffaf1
The Real Fault Line 6 mn – 79,10 Mib – 1920×1080 HEVC 10Bits – VOSTFR – 28a6e8dd
Scoring the Quake 6 mn – 52,30 Mib – 1920×1080 HEVC 10Bits – VOSTFR – 69537d72
Cunning Stunts 2 mn – 38,60 Mib – 1920×1080 HEVC 10Bits – VOSTFR – e546af10
Gag Reel 1 mn – 9,18 Mib – 1920×1080 HEVC 10Bits – VOSTFR – d3081c0b
8 Deleted Scenes with Comment 4 mn – 35,60 Mib – 1920×1080 HEVC 10Bits – VOSTFR – 78a03456
6 bonus, total 325,8 Mib 30 mn


If you enjoy and wish to support, please stay in seeding

Technical Details
¯¯¯¯¯¯¯¯¯¯¯¯¯¯¯¯¯¯¯¯¯¯¯¯¯¯¯¯¯¯¯¯¯¯¯¯¯¯¯¯¯¯¯¯¯¯¯¯¯¯¯¯¯¯¯¯¯¯¯¯¯¯¯¯¯¯¯¯¯¯¯¯¯¯¯¯¯¯¯¯¯¯¯¯¯¯¯¯¯¯¯¯¯¯¯¯¯¯¯¯
Media
Matroska 3,92 Gio 1 h54 mn 4896 Kbps, Total 4,24 Gio 2 h24 mn
Video
HEVC/H265 1920 x800 @23.976 [email protected]@Main 10 bits 3400 Kbps VerySlow qp26,27
Audio
True French 5.1 EAC3 448 Kbps 48KHz 16bits

Quebec French 5.1 AC3 448 Kbps 48KHz 16bits (original)

English (OV) 5.1 EAC3 448 Kbps 48KHz 16bits

English Commentary by Brad Peyton 2.0 EAC3 128 Kbps 48KHz 16bits

Subtitles
True French forced SRT
True French full SRT
True French forced PGS
True French full PGS
English full SDH PGS
Chapters
International

Screenshot

Origin
Bluray : Video AVC 1080p 24474 Kbps, VFF 7.1 Dolby TrueHD+Atmos 5252 Kbps, VFQ 5.1 AC3 448 Kbps, ENG 7.1 Dolby TrueHD+Atmos 5239 Kbps

NFO
¯¯¯¯¯¯¯¯¯¯¯¯¯¯¯¯¯¯¯¯¯¯¯¯¯¯¯¯¯¯¯¯¯¯¯¯¯¯¯¯¯¯¯¯¯¯¯¯¯¯¯¯¯¯¯¯¯¯¯¯¯¯¯¯¯¯¯¯¯¯¯¯¯¯¯¯¯¯¯¯¯¯¯¯¯¯¯¯¯¯¯¯¯¯¯¯¯¯¯¯

General
Complete name : San Andreas 2015 BR EAC3 VFF VFQ ENG 1080p x265 10Bits T0M.mkv

Format : Matroska
Format version : Version 4

File size : 3.92 GiB
Duration : 1 h 54 min

Overall bit rate : 4 896 kb/s

Movie name : San Andreas 2015 de Brad Peyton avec Dwayne Johnson, Carla Gugino, Alexandra Daddario, Ioan Gruffudd, Archie Panjabi, Paul Giamatti, Hugo Johnstone-Burt, Art Parkinson, Will Yun Lee, Kylie Minogue. Tout public (allocine=200433,imdb=tt2126355) T0M
Encoded date : UTC 2019-07-01 18:01:29

Writing application : mkvmerge v33.1.0 (‘Primrose’) 64-bit

Writing library : libebml v1.3.7 + libmatroska v1.5.0

Cover : Yes

Attachments : Cover.jpg

Video
ID : 1

Format : HEVC
Format/Info : High Efficiency Video Coding

Format profile : Main [email protected]@Main

Codec ID : V_MPEGH/ISO/HEVC

Duration : 1 h 54 min

Bit rate : 3 400 kb/s

Width : 1 920 pixels

Height : 800 pixels

Display aspect ratio : 2.40:1

Frame rate mode : Constant

Frame rate : 23.976 (24000/1001) FPS

Color space : YUV

Chroma subsampling : 4:2:0

Bit depth : 10 bits

Bits/(Pixel*Frame) : 0.092

Stream size : 2.72 GiB (69%)

Title : Video HEVC 1920×800 @23.976 x265 [email protected]@Main 10bits 3400kbps 2pass veryslow 2134mn
Writing library : x265 2.9:[Windows][GCC 8.2.0][64 bit] 10bit

Encoding settings : cpuid=1111039 / frame-threads=3 / numa-pools=8 / wpp / no-pmode / no-pme / no-psnr / no-ssim / log-level=2 / input-csp=1 / input-res=1920×800 / interlace=0 / total-frames=0 / level-idc=0 / high-tier=1 / uhd-bd=0 / ref=5 / no-allow-non-conformance / no-repeat-headers / annexb / no-aud / no-hrd / info / hash=0 / no-temporal-layers / open-gop / min-keyint=24 / keyint=240 / gop-lookahead=0 / bframes=8 / b-adapt=2 / b-pyramid / bframe-bias=0 / rc-lookahead=120 / lookahead-slices=0 / scenecut=40 / radl=0 / no-intra-refresh / ctu=64 / min-cu-size=8 / rect / amp / max-tu-size=32 / tu-inter-depth=3 / tu-intra-depth=3 / limit-tu=4 / rdoq-level=2 / dynamic-rd=0.00 / no-ssim-rd / signhide / no-tskip / nr-intra=0 / nr-inter=0 / no-constrained-intra / strong-intra-smoothing / max-merge=4 / limit-refs=1 / limit-modes / me=3 / subme=4 / merange=57 / temporal-mvp / weightp / weightb / no-analyze-src-pics / deblock=0:0 / sao / no-sao-non-deblock / rd=6 / no-early-skip / rskip / no-fast-intra / no-tskip-fast / no-cu-lossless / b-intra / no-splitrd-skip / rdpenalty=0 / psy-rd=2.00 / psy-rdoq=1.00 / no-rd-refine / no-lossless / cbqpoffs=0 / crqpoffs=0 / rc=abr / bitrate=3400 / qcomp=0.60 / qpstep=4 / stats-write=0 / stats-Read=2 / cplxblur=20.0 / qblur=0.5 / ipratio=1.40 / pbratio=1.30 / aq-mode=1 / aq-strength=1.00 / cutree / zone-count=0 / no-strict-cbr / qg-size=32 / no-rc-grain / qpmax=69 / qpmin=0 / no-const-vbv / sar=1 / overscan=0 / videoformat=5 / range=0 / colorprim=1 / transfer=1 / colormatrix=1 / chromaloc=0 / display-window=0 / max-cll=0,0 / min-luma=0 / max-luma=1023 / log2-max-poc-lsb=8 / vui-timing-info / vui-hrd-info / slices=1 / no-opt-qp-pps / no-opt-ref-list-length-pps / no-multi-pass-opt-rps / scenecut-bias=0.05 / no-opt-cu-delta-qp / no-aq-motion / no-hdr / no-hdr-opt / no-dhdr10-opt / no-idr-recovery-sei / analysis-reuse-level=5 / scale-factor=0 / refine-intra=0 / refine-inter=0 / refine-mv=0 / no-limit-sao / ctu-info=0 / no-lowpass-dct / refine-mv-type=0 / copy-pic=1 / max-ausize-factor=1.0 / no-dynamic-refine / no-single-sei

Default : Yes

Forced : No

Color range : Limited

Color primaries : BT.709

Transfer characteristics : BT.709

Matrix coefficients : BT.709

Audio #1
ID : 2

Format : E-AC-3
Format/Info : Enhanced AC-3

Commercial name : Dolby Digital Plus

Codec ID : A_EAC3

Duration : 1 h 54 min

Bit rate mode : Constant

Bit rate : 448 kb/s

Channel(s) : 6 channels

Channel layout : L R C LFE Ls Rs

Sampling rate : 48.0 kHz

Frame rate : 31.250 FPS (1536 SPF)

Compression mode : Lossy

Stream size : 367 MiB (9%)

Title : Français 5.1 EAC3 448kbps 48khz 16bits
Language : French
Service kind : Complete Main

Default : Yes

Forced : No

Audio #2
ID : 3

Format : AC-3
Format/Info : Audio Coding 3

Commercial name : Dolby Digital

Codec ID : A_AC3

Duration : 1 h 54 min

Bit rate mode : Constant

Bit rate : 448 kb/s

Channel(s) : 6 channels

Channel layout : L R C LFE Ls Rs

Sampling rate : 48.0 kHz

Frame rate : 31.250 FPS (1536 SPF)

Bit depth : 16 bits

Compression mode : Lossy

Delay relative to video : 5 ms

Stream size : 367 MiB (9%)

Title : Québécois 5.1 AC3 448kbps 48khz 16bits (original)
Language : French
Service kind : Complete Main

Default : No

Forced : No

Audio #3
ID : 4

Format : E-AC-3
Format/Info : Enhanced AC-3

Commercial name : Dolby Digital Plus

Codec ID : A_EAC3

Duration : 1 h 54 min

Bit rate mode : Constant

Bit rate : 448 kb/s

Channel(s) : 6 channels

Channel layout : L R C LFE Ls Rs

Sampling rate : 48.0 kHz

Frame rate : 31.250 FPS (1536 SPF)

Compression mode : Lossy

Stream size : 367 MiB (9%)

Title : English 5.1 EAC3 448kbps 48khz 16bits
Language : English
Service kind : Complete Main

Default : No

Forced : No

Audio #4
ID : 5

Format : E-AC-3
Format/Info : Enhanced AC-3

Commercial name : Dolby Digital Plus

Codec ID : A_EAC3

Duration : 1 h 54 min

Bit rate mode : Constant

Bit rate : 128 kb/s

Channel(s) : 2 channels

Channel layout : L R

Sampling rate : 48.0 kHz

Frame rate : 31.250 FPS (1536 SPF)

Compression mode : Lossy

Stream size : 105 MiB (3%)

Title : English comment by Brad Peyton 2.0 EAC3 128kbps 48khz 16bits
Language : English
Service kind : Complete Main

Default : No

Forced : No

Text #1
ID : 6

Format : UTF-8
Codec ID : S_TEXT/UTF8

Codec ID/Info : UTF-8 Plain Text

Duration : 1 h 54 min

Bit rate : 0 b/s

Count of elements : 13

Stream size : 688 Bytes (0%)

Title : Français forcé (Passages)
Language : French
Default : Yes

Forced : Yes

Text #2
ID : 7

Format : UTF-8
Codec ID : S_TEXT/UTF8

Codec ID/Info : UTF-8 Plain Text

Duration : 1 h 54 min

Bit rate : 33 b/s

Count of elements : 993

Stream size : 28.0 KiB (0%)

Title : Français complet (Tous le film)
Language : French
Default : No

Forced : No

Text #3
ID : 8

Format : PGS
Muxing mode : zlib

Codec ID : S_HDMV/PGS

Codec ID/Info : Picture based subtitle format used on BDs/HD-DVDs

Duration : 1 h 53 min

Bit rate : 239 b/s

Count of elements : 20

Stream size : 198 KiB (0%)

Title : Français forcé (Passages) PGS
Language : French
Default : No

Forced : Yes

Text #4
ID : 9

Format : PGS
Muxing mode : zlib

Codec ID : S_HDMV/PGS

Codec ID/Info : Picture based subtitle format used on BDs/HD-DVDs

Duration : 1 h 53 min

Bit rate : 18.5 kb/s

Count of elements : 1982

Stream size : 14.9 MiB (0%)

Title : Français complet (Tous le film) PGS
Language : French
Default : No

Forced : No

Text #5
ID : 10

Format : PGS
Muxing mode : zlib

Codec ID : S_HDMV/PGS

Codec ID/Info : Picture based subtitle format used on BDs/HD-DVDs

Duration : 1 h 52 min

Bit rate : 29.4 kb/s

Count of elements : 2978

Stream size : 23.7 MiB (1%)

Title : English full SDH PGS
Language : English
Default : No

Forced : No

Menu
00:00:00.000 : :01 – 00:00:00

00:09:29.944 : :02 – 00:09:29

00:18:47.209 : :03 – 00:18:47

00:30:10.099 : :04 – 00:30:10

00:40:08.823 : :05 – 00:40:08

00:50:18.098 : :06 – 00:50:18

00:59:44.497 : :07 – 00:59:44

01:11:27.366 : :08 – 01:11:27

01:19:43.612 : :09 – 01:19:43

01:30:40.810 : :10 – 01:30:40

01:39:56.490 : :11 – 01:39:56

01:47:10.924 : :12 – 01:47:10

San Andreas 2015 Bonus BR EACDownload Torrent Magnet

#San #Andreas #Bonus #EAC