Saina 2021 x264 720p WebHD Es Full Torrent Magnet Download

Download Torrent Saina 2021 x264 720p WebHD Es Movie Full in HD Result. Movie Saina 2021 x264 720p WebHD Es Torrent Download full. Movie Saina 2021 x264 720p WebHD Es torrent Magnet Download Full. Saina 2021 x264 720p WebHD Es Full Movie Torrent Download And Magnet Download For your PC And Mobiles. Latest Movie Saina 2021 x264 720p WebHD Es Download Link In Bottom.

Torrent And Magnet Links Below

Greets

Admin , Moderator , Noir, Ex0duS5150, theeshiznit, MisterQ, UserHEVC, miok, Silmarillion, Mr. Blue, MaDHeX and many more ;

Join Us On TeleGram

https://t.me/sahigopi

Saina 2021 x264 720p WebHD Esub Hindi THE GOPI SAHI

Format : Matroska

Format version : Version 4

File size : 954 MiB

Duration : 2 h 13 min

Overall bit rate : 996 kb/s

Movie name : Saina 2021 GOPI SAHI

Encoded date : UTC 2021-04-23 08:41:27

Video

ID : 1

Format : AVC

Format/Info : Advanced Video Codec

Format profile : [email protected]
Format settings : CABAC / 5 Ref Frames

Format settings, CABAC : Yes

Format settings, Reference fra : 5 frames

Codec ID : V_MPEG4/ISO/AVC

Duration : 2 h 13 min

Bit rate : 899 kb/s

Width : 1 248 pixels

Height : 520 pixels

Display aspect ratio : 2.40:1

Frame rate mode : Constant

Frame rate : 24.000 FPS

Color space : YUV

Chroma subsampling : 4:2:0

Bit depth : 8 bits

Scan type : Progressive

Bits/(Pixel*Frame) : 0.058

Stream size : 861 MiB (90%)

Title : GOPI SAHI

Writing library : x264 core 157 r2935 545de2f

Audio

ID : 2

Format : AAC LC

Format/Info : Advanced Audio Codec Low Complexity

Codec ID : A_AAC-2

Duration : 2 h 13 min

Bit rate : 96.0 kb/s

Channel(s) : 2 channels

Channel layout : L R

Sampling rate : 48.0 kHz

Frame rate : 46.875 FPS (1024 SPF)

Compression mode : Lossy

Delay relative to video : -21 ms

Stream size : 91.3 MiB (10%)

Title : GOPI SAHI

Language : Hindi

Default : Yes

Forced : No

Text

ID : 3

Format : UTF-8

Codec ID : S_TEXT/UTF8

Codec ID/Info : UTF-8 Plain Text

Duration : 2 h 8 min

Bit rate : 49 b/s

Count of elements : 1552

Stream size : 46.7 KiB (0%)

Title : GOPI SAHI

Language : English

Default : Yes

Forced : No

Menu

00:00:00.000 : :Censor Board Certificate

00:00:05.000 : :Disclaimer

00:00:15.000 : :Opening Credits

00:01:58.000 : :Thank You Note

00:03:13.042 : :Opening Credits

00:03:28.000 : :Scene 6

00:06:47.083 : :Opening Credits

00:07:05.125 : :Scene 8

00:10:45.083 : :Scene 9

00:19:11.083 : :Scene 10

00:26:37.000 : :Scene 11

00:35:58.000 : :Scene 12

00:43:31.083 : :Scene 13

00:52:28.000 : :Scene 14

01:02:03.125 : :Scene 15

01:10:07.083 : :Scene 16

01:19:56.000 : :Scene 17

01:25:04.000 : :Scene 18

01:32:07.000 : :Scene 19

01:43:09.042 : :Scene 20

01:50:56.000 : :Scene 21

01:58:52.000 : :Scene 22

02:06:16.000 : :Epologue

02:06:50.000 : :Scene 24

02:10:28.000 : :End Credits

Saina 2021 x264 720p WebHD EsDownload Torrent Magnet

#Saina #x264 #720p #WebHD