Saina (2021) Hindi 1080p – WE Full Torrent Magnet Download

Download Torrent Saina (2021) Hindi 1080p – WE Movie Full in HD Result. Movie Saina (2021) Hindi 1080p – WE Torrent Download full. Movie Saina (2021) Hindi 1080p – WE torrent Magnet Download Full. Saina (2021) Hindi 1080p – WE Full Movie Torrent Download And Magnet Download For your PC And Mobiles. Latest Movie Saina (2021) Hindi 1080p – WE Download Link In Bottom.

Torrent And Magnet Links Below

Please Seed Back After Download

Screenshots



Info

Video

ID                                       : 1

Format                                   : AVC

Format/Info                              : Advanced Video Codec

Format profile                           : [email protected]
Format settings                          : CABAC / 4 Ref Frames

Format settings, CABAC                   : Yes

Format settings, Reference frames        : 4 frames

Codec ID                                 : V_MPEG4/ISO/AVC

Duration                                 : 2 h 13 min

Bit rate                                 : 1 852 kb/s

Width                                    : 1 920 pixels

Height                                   : 800 pixels

Display aspect ratio                     : 2.40:1

Frame rate mode                          : Constant

Frame rate                               : 24.000 FPS

Color space                              : YUV

Chroma subsampling                       : 4:2:0

Bit depth                                : 8 bits

Scan type                                : Progressive

Bits/(Pixel*Frame)                       : 0.050

Stream size                              : 1.73 GiB (74%)

Default                                  : Yes

Forced                                   : No

Color range                              : Limited

Color primaries                          : BT.709

Transfer characteristics                 : BT.709

Matrix coefficients                      : BT.709

Audio

ID                                       : 3

Format                                   : E-AC-3

Format/Info                              : Enhanced AC-3

Commercial name                          : Dolby Digital Plus

Codec ID                                 : A_EAC3

Duration                                 : 2 h 13 min

Bit rate mode                            : Constant

Bit rate                                 : 640 kb/s

Channel(s)                               : 6 channels

Channel layout                           : L R C LFE Ls Rs

Sampling rate                            : 48.0 kHz

Frame rate                               : 31.250 FPS (1536 SPF)

Compression mode                         : Lossy

Stream size                              : 613 MiB (26%)

Language                                 : Hindi

Service kind                             : Complete Main

Default                                  : Yes

Forced                                   : No

Text

ID                                       : 2

Format                                   : UTF-8

Codec ID                                 : S_TEXT/UTF8

Codec ID/Info                            : UTF-8 Plain Text

Duration                                 : 2 h 8 min

Bit rate                                 : 49 b/s

Count of elements                        : 1551

Stream size                              : 46.7 KiB (0%)

Default                                  : Yes

Forced                                   : No

Saina (2021) Hindi 1080p – WEDownload Torrent Magnet

#Saina #Hindi #1080p