Saina 2021 720p AMZN WEB-DL A Full Torrent Magnet Download

Download Torrent Saina 2021 720p AMZN WEB-DL A Movie Full in HD Result. Movie Saina 2021 720p AMZN WEB-DL A Torrent Download full. Movie Saina 2021 720p AMZN WEB-DL A torrent Magnet Download Full. Saina 2021 720p AMZN WEB-DL A Full Movie Torrent Download And Magnet Download For your PC And Mobiles. Latest Movie Saina 2021 720p AMZN WEB-DL A Download Link In Bottom.

Torrent And Magnet Links Below

Saina 2021 720p AMZN WEB-DL AAC2.0 H264 – SunGeorge

Quote:

Saina 2021 720p AMZN WEB-DL AAC2.0 H264 – SunGeorge



Code:

General

Complete name : Saina.2021.720p.AMZN.WEB-DL.AAC2.0.H.264.mkv

Format : Matroska

Format version : Version 4

File size : 1.10 GiB

Duration : 2 h 13 min

Overall bit rate : 1 181 kb/s

Movie name : MovieAIO.us

Encoded date : UTC 2021-04-23 05:23:51

Writing application : mkvmerge v56.1.0 (‘My Friend’) 64-bit

Writing library : libebml v1.4.2 + libmatroska v1.6.4

Video

ID : 1

Format : AVC

Format/Info : Advanced Video Codec

Format profile : [email protected]
Format settings : 1 Ref Frames

Format settings, CABAC : No

Format settings, Reference frames : 1 frame

Codec ID : V_MPEG4/ISO/AVC

Duration : 2 h 13 min

Bit rate : 1 051 kb/s

Width : 1 280 pixels

Height : 534 pixels

Display aspect ratio : 2.40:1

Frame rate mode : Constant

Frame rate : 24.000 FPS

Color space : YUV

Chroma subsampling : 4:2:0

Bit depth : 8 bits

Scan type : Progressive

Bits/(Pixel*Frame) : 0.064

Stream size : 1 006 MiB (89%)

Title : MovieAIO.us

Writing library : x264 core 155 r2901 7d0ff22

Default : Yes

Forced : No

Color range : Limited

Color primaries : BT.709

Transfer characteristics : BT.709

Matrix coefficients : BT.709

Audio

ID : 2

Format : AAC LC

Format/Info : Advanced Audio Codec Low Complexity

Codec ID : A_AAC-2

Duration : 2 h 13 min

Bit rate : 128 kb/s

Channel(s) : 2 channels

Channel layout : L R

Sampling rate : 44.1 kHz

Frame rate : 43.066 FPS (1024 SPF)

Compression mode : Lossy

Stream size : 123 MiB (11%)

Title : MovieAIO.us

Default : Yes

Forced : No

Text

ID : 3

Format : UTF-8

Codec ID : S_TEXT/UTF8

Codec ID/Info : UTF-8 Plain Text

Duration : 2 h 8 min

Bit rate : 49 b/s

Count of elements : 1551

Stream size : 46.7 KiB (0%)

Title : English [SDH]
Language : English

Default : No

Forced : No

Menu

00:00:00.000 : Censor Board Certificate

00:00:05.000 : Disclaimer

00:00:15.000 : Opening Credits

00:01:58.000 : Thank You Note

00:03:13.000 : Opening Credits

00:03:28.000 : Scene 6

00:06:47.000 : Opening Credits

00:07:05.000 : Scene 8

00:10:45.000 : Scene 9

00:19:11.000 : Scene 10

00:26:37.000 : Scene 11

00:35:58.000 : Scene 12

00:43:31.000 : Scene 13

00:52:28.000 : Scene 14

01:02:03.000 : Scene 15

01:10:07.000 : Scene 16

01:19:56.000 : Scene 17

01:25:04.000 : Scene 18

01:32:07.000 : Scene 19

01:43:09.000 : Scene 20

01:50:56.000 : Scene 21

01:58:52.000 : Scene 22

02:06:16.000 : Epologue

02:06:50.000 : Scene 24

02:10:28.000 : End Credits

Saina 2021 720p AMZN WEB-DL ADownload Torrent Magnet

#Saina #720p #AMZN #WEBDL