Sabotage 2014 Bonus BR EAC3 V Full Torrent Magnet Download

Download Torrent Sabotage 2014 Bonus BR EAC3 V Movie Full in HD Result. Movie Sabotage 2014 Bonus BR EAC3 V Torrent Download full. Movie Sabotage 2014 Bonus BR EAC3 V torrent Magnet Download Full. Sabotage 2014 Bonus BR EAC3 V Full Movie Torrent Download And Magnet Download For your PC And Mobiles. Latest Movie Sabotage 2014 Bonus BR EAC3 V Download Link In Bottom.

Torrent And Magnet Links Below

______________________________________________________________________________________________________________
Sabotage 2014
Bluray · 1080p x265 10bits · DD+ 5.1 VFF ENG
More Bonus
¯¯¯¯¯¯¯¯¯¯¯¯¯¯¯¯¯¯¯¯¯¯¯¯¯¯¯¯¯¯¯¯¯¯¯¯¯¯¯¯¯¯¯¯¯¯¯¯¯¯¯¯¯¯¯¯¯¯¯¯¯¯¯¯¯¯¯¯¯¯¯¯¯¯¯¯¯¯¯¯

Year : 2014

Country : United States

Original, French and English Title : Sabotage

Director : David Ayer
Music from : David Sardy

Acteurs : Arnold Schwarzenegger, Sam Worthington, Mireille Enos, Olivia Williams, Terrence Howard, Joe Manganiello, Harold Perrineau

Martin Donovan, Max Martini, Josh Holloway

Genre : Crime, Action, Drama, Thriller

Certificate : Not recommended for children under 12 years old
Budget : 35 000 000 $ · Recipe : 18 870 575 $ · ratio : 54 %

Link : Allociné 2,1 /5 · IMDB 5,7 /10 · TMDB 55 % · SensCritique 4,5 /10 · Wiki · Bande Annonce

French Plot
Pour cette force d’élite de la DEA , il s’agit officiellement de prendre d’assaut le repaire d’un important cartel mais en réalité, l’opération se révèle être un véritable braquage. Après s’être emparés de 10 millions de dollars en liquide , les agents complices pensent leur secret bien gardé… jusqu’à ce que quelqu’un se mette à les assassiner les uns après les autres , froidement, méthodiquement. Alors que les meurtres se multiplient, chaque membre de l’équipe devient un suspect. Chacun sait tuer, et chacun a un excellent mobile…

Bonus
4 Deleted Scenes 27 mn – 251,0 Mib – 1920×1080 HEVC 10Bits – VOSTFR – 994e50f3
Bluray Looping 39 s – 11,80 Mib – 1920×1080 HEVC 10Bits – VF – ff7dda41
Bluray Opening 44 s – 13,60 Mib – 1920×1080 HEVC 10Bits – VF – 184408d7
Making of 8 mn – 85,20 Mib – 1920×1080 HEVC 10Bits – VOSTFR – 1cdc528d
Teaser 1 mn – 15,60 Mib – 1920×1080 HEVC 10Bits – VF – 46361e49
5 bonus, total 377,2 Mib 39 mn


If you enjoy and wish to support, please stay in seeding

Technical Details
¯¯¯¯¯¯¯¯¯¯¯¯¯¯¯¯¯¯¯¯¯¯¯¯¯¯¯¯¯¯¯¯¯¯¯¯¯¯¯¯¯¯¯¯¯¯¯¯¯¯¯¯¯¯¯¯¯¯¯¯¯¯¯¯¯¯¯¯¯¯¯¯¯¯¯¯¯¯¯¯¯¯¯¯¯¯¯¯¯¯¯¯¯¯¯¯¯¯¯¯
Media
Matroska 3,53 Gio 1 h49 mn 4622 Kbps, Total 3,90 Gio 2 h28 mn
Video
HEVC/H265 1920 x1038 @23.976 [email protected]@Main 10 bits 3701 Kbps VerySlow qp25,76
Audio
True French 5.1 EAC3 448 Kbps 48KHz 16bits

English (OV) 5.1 EAC3 448 Kbps 48KHz 16bits

Subtitles
True French forced SRT
True French full SRT
True French forced PGS
True French full PGS
True French Sourds&Malentendants PGS
Chapters
International

Screenshot

Origin
Bluray : Video AVC 1080p 30720 Kbps, VFF 5.1 DTS-HDMA 1869 Kbps, Anglais 5.1 DTS-HDMA 1832 Kbps

NFO
¯¯¯¯¯¯¯¯¯¯¯¯¯¯¯¯¯¯¯¯¯¯¯¯¯¯¯¯¯¯¯¯¯¯¯¯¯¯¯¯¯¯¯¯¯¯¯¯¯¯¯¯¯¯¯¯¯¯¯¯¯¯¯¯¯¯¯¯¯¯¯¯¯¯¯¯¯¯¯¯¯¯¯¯¯¯¯¯¯¯¯¯¯¯¯¯¯¯¯¯

General
Format : Matroska
Format version : Version 4 / Version 2

File size : 3.53 GiB
Duration : 1 h 49 min

Overall bit rate : 4 622 kb/s

Movie name : Sabotage 2014 de David Ayer avec Arnold Schwarzenegger, Sam Worthington, Mireille Enos, Olivia Williams, Terrence Howard, Joe Manganiello, Harold Perrineau, Martin Donovan, Max Martini, Josh Holloway. -12 ans (allocine=186320,imdb=tt1742334) T0M
Encoded date : UTC 2018-07-16 18:39:42

Writing application : mkvmerge v8.0.0 (‘Til The Day That I Die’) 64bit

Writing library : libebml v1.3.1 + libmatroska v1.4.2

Cover : Yes

Attachments : Cover.jpg / Support.png / Poster.jpg / Poster2.jpg / Poster3.jpg

Video
ID : 1

Format : HEVC
Format/Info : High Efficiency Video Coding

Format profile : Main [email protected]@Main

Codec ID : V_MPEGH/ISO/HEVC

Duration : 1 h 49 min

Bit rate : 3 701 kb/s

Width : 1 920 pixels

Height : 1 038 pixels

Display aspect ratio : 1.85:1

Frame rate mode : Constant

Frame rate : 23.976 (24000/1001) FPS

Color space : YUV

Chroma subsampling : 4:2:0

Bit depth : 10 bits

Bits/(Pixel*Frame) : 0.077

Stream size : 2.83 GiB (80%)

Title : Video HEVC 1920×1038 @23.976 x265 [email protected]@Main 10bits 3700kbps 2pass veryslow 2498mn
Writing library : x265 2.6:[Windows][GCC 7.3.0][64 bit] 10bit

Encoding settings : cpuid=1173503 / frame-threads=3 / numa-pools=8 / wpp / no-pmode / no-pme / no-psnr / no-ssim / log-level=2 / input-csp=1 / input-res=1920×1038 / interlace=0 / total-frames=0 / level-idc=0 / high-tier=1 / uhd-bd=0 / ref=5 / no-allow-non-conformance / no-repeat-headers / annexb / no-aud / no-hrd / info / hash=0 / no-temporal-layers / open-gop / min-keyint=24 / keyint=240 / bframes=8 / b-adapt=2 / b-pyramid / bframe-bias=0 / rc-lookahead=40 / lookahead-slices=0 / scenecut=40 / no-intra-refresh / ctu=64 / min-cu-size=8 / rect / amp / max-tu-size=32 / tu-inter-depth=3 / tu-intra-depth=3 / limit-tu=4 / rdoq-level=2 / dynamic-rd=0.00 / no-ssim-rd / signhide / no-tskip / nr-intra=0 / nr-inter=0 / no-constrained-intra / strong-intra-smoothing / max-merge=4 / limit-refs=1 / limit-modes / me=3 / subme=4 / merange=57 / temporal-mvp / weightp / weightb / no-analyze-src-pics / deblock=0:0 / sao / no-sao-non-deblock / rd=6 / no-early-skip / rskip / no-fast-intra / no-tskip-fast / no-cu-lossless / b-intra / no-splitrd-skip / rdpenalty=0 / psy-rd=2.00 / psy-rdoq=1.00 / no-rd-refine / analysis-reuse-mode=0 / no-lossless / cbqpoffs=0 / crqpoffs=0 / rc=abr / bitrate=3700 / qcomp=0.60 / qpstep=4 / stats-write=0 / stats-Read=2 / cplxblur=20.0 / qblur=0.5 / ipratio=1.40 / pbratio=1.30 / aq-mode=1 / aq-strength=1.00 / cutree / zone-count=0 / no-strict-cbr / qg-size=32 / no-rc-grain / qpmax=69 / qpmin=0 / no-const-vbv / sar=1 / overscan=0 / videoformat=5 / range=0 / colorprim=1 / transfer=1 / colormatrix=1 / chromaloc=0 / display-window=0 / max-cll=0,0 / min-luma=0 / max-luma=1023 / log2-max-poc-lsb=8 / vui-timing-info / vui-hrd-info / slices=1 / no-opt-qp-pps / no-opt-ref-list-length-pps / no-multi-pass-opt-rps / scenecut-bias=0.05 / no-opt-cu-delta-qp / no-aq-motion / no-hdr / no-hdr-opt / no-dhdr10-opt / analysis-reuse-level=5 / scale-factor=0 / refine-intra=0 / refine-inter=0 / refine-mv=0 / no-limit-sao / ctu-info=0 / no-lowpass-dct / refine-mv-type=0 / copy-pic=1

Default : Yes

Forced : No

Color range : Limited

Color primaries : BT.709

Transfer characteristics : BT.709

Matrix coefficients : BT.709

Audio #1
ID : 2

Format : E-AC-3
Format/Info : Enhanced Audio Coding 3

Codec ID : A_EAC3

Duration : 1 h 49 min

Bit rate mode : Constant

Bit rate : 448 kb/s

Channel(s) : 6 channels

Channel positions : Front: L C R, Side: L R, LFE

Sampling rate : 48.0 kHz

Frame rate : 187.500 FPS (256 SPF)

Compression mode : Lossy

Delay relative to video : 5 ms

Stream size : 351 MiB (10%)

Title : Français 5.1 EAC3 448kbps 48khz 16bits
Language : French
Service kind : Complete Main

Default : Yes

Forced : No

Audio #2
ID : 3

Format : E-AC-3
Format/Info : Enhanced Audio Coding 3

Codec ID : A_EAC3

Duration : 1 h 49 min

Bit rate mode : Constant

Bit rate : 448 kb/s

Channel(s) : 6 channels

Channel positions : Front: L C R, Side: L R, LFE

Sampling rate : 48.0 kHz

Frame rate : 187.500 FPS (256 SPF)

Compression mode : Lossy

Delay relative to video : 5 ms

Stream size : 351 MiB (10%)

Title : English 5.1 EAC3 448kbps 48khz 16bits
Language : English
Service kind : Complete Main

Default : No

Forced : No

Text #1
ID : 4

Format : UTF-8
Codec ID : S_TEXT/UTF8

Codec ID/Info : UTF-8 Plain Text

Duration : 1 h 49 min

Bit rate : 0 b/s

Count of elements : 20

Stream size : 675 Bytes (0%)

Title : Français forcé (Passages)
Language : French
Default : Yes

Forced : Yes

Text #2
ID : 5

Format : UTF-8
Codec ID : S_TEXT/UTF8

Codec ID/Info : UTF-8 Plain Text

Duration : 1 h 49 min

Bit rate : 44 b/s

Count of elements : 1405

Stream size : 35.5 KiB (0%)

Title : Français complet (Tous le film)
Language : French
Default : No

Forced : No

Text #3
ID : 6

Format : PGS
Muxing mode : zlib

Codec ID : S_HDMV/PGS

Codec ID/Info : Picture based subtitle format used on BDs/HD-DVDs

Duration : 1 h 34 min

Bit rate : 98 b/s

Count of elements : 58

Stream size : 68.4 KiB (0%)

Title : Français forcé (Passages) PGS
Language : French
Default : No

Forced : Yes

Text #4
ID : 7

Format : PGS
Muxing mode : zlib

Codec ID : S_HDMV/PGS

Codec ID/Info : Picture based subtitle format used on BDs/HD-DVDs

Duration : 1 h 48 min

Bit rate : 6 942 b/s

Count of elements : 2812

Stream size : 5.40 MiB (0%)

Title : Français complet (Tous le film) PGS
Language : French
Default : No

Forced : No

Text #5
ID : 8

Format : PGS
Muxing mode : zlib

Codec ID : S_HDMV/PGS

Codec ID/Info : Picture based subtitle format used on BDs/HD-DVDs

Duration : 1 h 48 min

Bit rate : 9 002 b/s

Count of elements : 4031

Stream size : 7.00 MiB (0%)

Title : Français Sourds&Malentendants PGS
Language : French
Default : No

Forced : No

Menu
00:00:00.000 : :01 – 00:00:00

00:06:14.624 : :02 – 00:06:14

00:13:11.081 : :03 – 00:13:11

00:17:52.905 : :04 – 00:17:52

00:22:09.202 : :05 – 00:22:09

00:29:45.408 : :06 – 00:29:45

00:37:09.185 : :07 – 00:37:09

00:42:36.553 : :08 – 00:42:36

00:47:38.230 : :09 – 00:47:38

00:57:14.430 : :10 – 00:57:14

01:03:19.587 : :11 – 01:03:19

01:08:34.318 : :12 – 01:08:34

01:16:53.275 : :13 – 01:16:53

01:28:25.299 : :14 – 01:28:25

01:35:15.125 : :15 – 01:35:15

01:42:23.637 : :16 – 01:42:23

Sabotage 2014 Bonus BR EAC3 VDownload Torrent Magnet

#Sabotage #Bonus #EAC3