Saaho (2019) 1080p JPN 10bit Full Torrent Magnet Download

Download Torrent Saaho (2019) 1080p JPN 10bit Movie Full in HD Result. Movie Saaho (2019) 1080p JPN 10bit Torrent Download full. Movie Saaho (2019) 1080p JPN 10bit torrent Magnet Download Full. Saaho (2019) 1080p JPN 10bit Full Movie Torrent Download And Magnet Download For your PC And Mobiles. Latest Movie Saaho (2019) 1080p JPN 10bit Download Link In Bottom.

Torrent And Magnet Links Below

Saaho (2019) 1080p JPN 10bit Bluray x265 HEVC Telugu DDP 5.1 MSubs ~ TombDoc

Code:

Format                                   : Matroska

Format version                           : Version 4

File size                                : 4.41 GiB

Duration                                 : 2 h 49 min

Overall bit rate                         : 3 718 kb/s

Video

ID                                       : 1

Format                                   : HEVC

Format/Info                              : High Efficiency Video Coding

Format profile                           : Main [email protected]@Main

Codec ID                                 : V_MPEGH/ISO/HEVC

Duration                                 : 2 h 49 min

Bit rate                                 : 2 916 kb/s

Width                                    : 1 920 pixels

Height                                   : 820 pixels

Display aspect ratio                     : 2.35:1

Frame rate mode                          : Constant

Frame rate                               : 23.976 (24000/1001) FPS

Color space                              : YUV

Chroma subsampling                       : 4:2:0

Bit depth                                : 10 bits

Bits/(Pixel*Frame)                       : 0.077

Stream size                              : 3.46 GiB (78%)

Writing library                          : x265M – 3.4+28-419182243:[Windows][GCC 10.2.0][64 bit] 10bit

Encoding settings                        : cpuid=1111039 / frame-threads=4 / numa-pools=24 / wpp / no-pmode / no-pme / no-psnr / no-ssim / log-level=2 / input-csp=1 / input-res=1920×820 / interlace=0 / total-frames=244177 / level-idc=0 / high-tier=1 / uhd-bd=0 / ref=5 / no-allow-non-conformance / no-repeat-headers / annexb / no-aud / no-hrd / info / hash=0 / no-temporal-layers / open-gop / min-keyint=23 / keyint=250 / gop-lookahead=0 / bframes=8 / b-adapt=2 / b-pyramid / bframe-bias=0 / rc-lookahead=100 / lookahead-slices=4 / scenecut=40 / hist-scenecut=0 / radl=0 / no-splice / no-intra-refresh / ctu=64 / min-cu-size=8 / rect / amp / max-tu-size=32 / tu-inter-depth=2 / tu-intra-depth=2 / limit-tu=1 / rdoq-level=2 / dynamic-rd=0.00 / ssim-rd / signhide / no-tskip / nr-intra=0 / nr-inter=0 / no-constrained-intra / strong-intra-smoothing / max-merge=5 / limit-refs=3 / limit-modes / me=3 / subme=6 / merange=57 / temporal-mvp / no-frame-dup / no-hme / weightp / no-weightb / no-analyze-src-pics / deblock=0:0 / sao / no-sao-non-deblock / rd=4 / selective-sao=4 / no-early-skip / rskip / no-fast-intra / no-tskip-fast / no-cu-lossless / no-b-intra / no-splitrd-skip / rdpenalty=0 / psy-rd=0.00 / psy-rdoq=2.00 / no-rd-refine / no-lossless / cbqpoffs=0 / crqpoffs=0 / rc=crf / crf=18.0 / qcomp=0.60 / qpstep=4 / stats-write=0 / stats-read=0 / ipratio=1.40 / pbratio=1.30 / aq-mode=4 / aq-strength=1.00 / cutree / zone-count=0 / no-strict-cbr / qg-size=32 / rc-grain / qpmax=69 / qpmin=0 / no-const-vbv / sar=0 / overscan=0 / videoformat=5 / range=0 / colorprim=1 / transfer=1 / colormatrix=1 / chromaloc=0 / display-window=0 / cll=0,0 / min-luma=0 / max-luma=1023 / log2-max-poc-lsb=8 / vui-timing-info / vui-hrd-info / slices=1 / no-opt-qp-pps / no-opt-ref-list-length-pps / no-multi-pass-opt-rps / scenecut-bias=0.05 / hist-threshold=0.03 / no-opt-cu-delta-qp / aq-motion / no-hdr10 / no-hdr10-opt / no-dhdr10-opt / no-idr-recovery-sei / analysis-reuse-level=0 / analysis-save-reuse-level=0 / analysis-load-reuse-level=0 / scale-factor=0 / refine-intra=0 / refine-inter=0 / refine-mv=1 / refine-ctu-distortion=0 / no-limit-sao / ctu-info=0 / no-lowpass-dct / refine-analysis-type=0 / copy-pic=1 / max-ausize-factor=1.0 / no-dynamic-refine / no-single-sei / hevc-aq / no-svt / no-field / qp-adaptation-range=1.00 / no-scenecut-aware-qpconformance-window-offsets / right=0 / bottom=0 / decoder-max-rate=0 / no-vbv-live-multi-pass

Default                                  : Yes

Forced                                   : No

Color range                              : Limited

Color primaries                          : BT.709

Transfer characteristics                 : BT.709

Matrix coefficients                      : BT.709

Audio

ID                                       : 2

Format                                   : E-AC-3

Format/Info                              : Enhanced AC-3

Commercial name                          : Dolby Digital Plus

Codec ID                                 : A_EAC3

Duration                                 : 2 h 49 min

Bit rate mode                            : Constant

Bit rate                                 : 768 kb/s

Channel(s)                               : 6 channels

Channel layout                           : L R C LFE Ls Rs

Sampling rate                            : 48.0 kHz

Frame rate                               : 31.250 FPS (1536 SPF)

Compression mode                         : Lossy

Stream size                              : 932 MiB (21%)

Title                                    : Telugu DD+ 5.1 768Kbps ~ TombDoc

Language                                 : Telugu

Service kind                             : Complete Main

Default                                  : Yes

Forced                                   : Yes

Text #1

ID                                       : 3

Format                                   : PGS

Muxing mode                              : zlib

Codec ID                                 : S_HDMV/PGS

Codec ID/Info                            : Picture based subtitle format used on BDs/HD-DVDs

Duration                                 : 2 h 43 min

Bit rate                                 : 28.6 kb/s

Count of elements                        : 4014

Stream size                              : 33.4 MiB (1%)

Title                                    : Eng BD-PGS

Language                                 : English

Default                                  : No

Forced                                   : No

Text #2

ID                                       : 4

Format                                   : PGS

Muxing mode                              : zlib

Codec ID                                 : S_HDMV/PGS

Codec ID/Info                            : Picture based subtitle format used on BDs/HD-DVDs

Duration                                 : 2 h 43 min

Bit rate                                 : 35.8 kb/s

Count of elements                        : 3972

Stream size                              : 41.8 MiB (1%)

Title                                    : Tamil BD-PGS

Language                                 : Tamil

Default                                  : No

Forced                                   : No

Text #3

ID                                       : 5

Format                                   : PGS

Muxing mode                              : zlib

Codec ID                                 : S_HDMV/PGS

Codec ID/Info                            : Picture based subtitle format used on BDs/HD-DVDs

Duration                                 : 2 h 43 min

Bit rate                                 : 26.1 kb/s

Count of elements                        : 3722

Stream size                              : 30.5 MiB (1%)

Title                                    : Telugu BD-PGS

Language                                 : Telugu

Default                                  : No

Forced                                   : No

Text #4

ID                                       : 6

Format                                   : PGS

Muxing mode                              : zlib

Codec ID                                 : S_HDMV/PGS

Codec ID/Info                            : Picture based subtitle format used on BDs/HD-DVDs

Duration                                 : 2 h 43 min

Bit rate                                 : 16.0 kb/s

Count of elements                        : 2919

Stream size                              : 18.7 MiB (0%)

Title                                    : Japanese BD-PGS

Language                                 : Japanese

Default                                  : No

Forced                                   : No

Text #5

ID                                       : 7

Format                                   : PGS

Muxing mode                              : zlib

Codec ID                                 : S_HDMV/PGS

Codec ID/Info                            : Picture based subtitle format used on BDs/HD-DVDs

Duration                                 : 2 h 36 min

Bit rate                                 : 1 824 b/s

Count of elements                        : 351

Stream size                              : 2.04 MiB (0%)

Title                                    : Japanese BD-PGS {Forced}

Language                                 : Japanese

Default                                  : No

Forced                                   : No

Menu

00:00:00.000                             : en:Chapter 01

00:21:26.076                             : en:Chapter 02

00:39:11.349                             : en:Chapter 03

00:57:41.625                             : en:Chapter 04

01:15:45.541                             : en:Chapter 05

01:33:10.585                             : en:Chapter 06

01:53:44.234                             : en:Chapter 07

02:16:29.681                             : en:Chapter 08

02:29:13.903                             : en:Chapter 09

02:44:26.857                             : en:Chapter 10

Code:

Source: SAAHO • 2019 • BD50 • Untouched JPN BluRay • TELEGU • TWiN  • DRs

Note: Hmm, you guys expecting it in Hindi language, so what went wrong?

Sahoo Movie was Shot in 2 Different Versions.

One for Tollywood and one for Bollywood by 2 Different Production House.

The recent Japanese Bluray was out for Tollywood {Telugu} version which is perfectly
Synced with Tamil, Malayalam and Kannada Amazon prime Audios. The Bollywood

version which is available on Netflix in Hindi language will always be out of sync.

That’s why it’s not possible to sync & Multi Subs are from AMZN And then muxed.

EnjOyY…

Saaho (2019) 1080p JPN 10bit Download Torrent Magnet

#Saaho #1080p #JPN #10bit