Rush Hour 3 2007 x264 720p Es Full Torrent Magnet Download

Download Torrent Rush Hour 3 2007 x264 720p Es Movie Full in HD Result. Movie Rush Hour 3 2007 x264 720p Es Torrent Download full. Movie Rush Hour 3 2007 x264 720p Es torrent Magnet Download Full. Rush Hour 3 2007 x264 720p Es Full Movie Torrent Download And Magnet Download For your PC And Mobiles. Latest Movie Rush Hour 3 2007 x264 720p Es Download Link In Bottom.

Torrent And Magnet Links Below

Greets

Admin , Moderator , Noir, Ex0duS5150, theeshiznit, MisterQ, UserHEVC, miok, Silmarillion, Mr. Blue, MaDHeX and many more ;

Join Us On TeleGram

https://t.me/gopisahit

Rush Hour 3 2007 x264 720p Esub BluRay Dual Audio English Hindi THE GOPI SAHI

Format : Matroska

Format version : Version 4

File size : 768 MiB

Duration : 1 h 30 min

Overall bit rate : 1 183 kb/s

Movie name : Rush Hour 3 2007 GOPI SAHI

Encoded date : UTC 2020-08-19 04:03:17

Video

ID : 1

Format : AVC

Format/Info : Advanced Video Codec

Format profile : [email protected]
Format settings : CABAC / 5 Ref Frames

Format settings, CABAC : Yes

Format settings, Reference fra : 5 frames

Codec ID : V_MPEG4/ISO/AVC

Duration : 1 h 30 min

Bit rate : 899 kb/s

Width : 1 280 pixels

Height : 534 pixels

Display aspect ratio : 2.40:1

Frame rate mode : Constant

Frame rate : 23.976 (24000/1001) FPS

Color space : YUV

Chroma subsampling : 4:2:0

Bit depth : 8 bits

Scan type : Progressive

Bits/(Pixel*Frame) : 0.055

Stream size : 583 MiB (76%)

Title : GOPI SAHI

Writing library : x264 core 157 r2935 545de2f

Audio #1

ID : 2

Format : AAC LC

Format/Info : Advanced Audio Codec Low Complexity

Codec ID : A_AAC-2

Duration : 1 h 30 min

Bit rate : 96.0 kb/s

Channel(s) : 2 channels

Channel layout : L R

Sampling rate : 48.0 kHz

Frame rate : 46.875 FPS (1024 SPF)

Compression mode : Lossy

Delay relative to video : 54 ms

Stream size : 62.4 MiB (8%)

Title : GOPI SAHI

Language : Hindi

Default : Yes

Forced : No

Audio #2

ID : 3

Format : AAC LC

Format/Info : Advanced Audio Codec Low Complexity

Codec ID : A_AAC-2

Duration : 1 h 30 min

Bit rate : 96.0 kb/s

Channel(s) : 2 channels

Channel layout : L R

Sampling rate : 48.0 kHz

Frame rate : 46.875 FPS (1024 SPF)

Compression mode : Lossy

Delay relative to video : -21 ms

Stream size : 62.5 MiB (8%)

Title : GOPI SAHI

Language : English

Default : No

Forced : No

Text #1

ID : 4

Format : PGS

Muxing mode : zlib

Codec ID : S_HDMV/PGS

Codec ID/Info : Picture based subtitle format used on BDs/HD-DVDs

Duration : 1 h 27 min

Bit rate : 57.5 kb/s

Count of elements : 3246

Stream size : 35.9 MiB (5%)

Title : GOPI SAHI

Language : English

Default : Yes

Forced : Yes

Text #2

ID : 5

Format : PGS

Muxing mode : zlib

Codec ID : S_HDMV/PGS

Codec ID/Info : Picture based subtitle format used on BDs/HD-DVDs

Duration : 1 h 27 min

Bit rate : 69.8 kb/s

Count of elements : 2992

Stream size : 43.8 MiB (6%)

Title : GOPI SAHI

Language : Tamil

Default : No

Forced : No

Text #3

ID : 6

Format : PGS

Muxing mode : zlib

Codec ID : S_HDMV/PGS

Codec ID/Info : Picture based subtitle format used on BDs/HD-DVDs

Duration : 1 h 27 min

Bit rate : 57.6 kb/s

Count of elements : 2992

Stream size : 36.2 MiB (5%)

Title : GOPI SAHI

Language : Telugu

Default : No

Forced : No

Menu

00:00:00.000 : :Main Titles

00:05:06.640 : :Attack at the World Court

00:09:24.355 : :The Promise

00:12:03.598 : :The Master

00:17:21.123 : :Hospital Ambush

00:20:44.201 : :Interrogation

00:24:06.111 : :Welcome to Paris

00:29:48.704 : :Searching for Genevieve

00:35:58.114 : :Superspy Chase

00:41:56.597 : :Brothers

00:47:48.449 : :Showtime!

00:54:17.296 : :Shy Shen

01:05:51.197 : :The First Cut

01:11:06.596 : :Tower Duel

01:15:14.802 : :What Goes Up

01:21:43.899 : :Outtakes / End Credits

Rush Hour 3 2007 x264 720p EsDownload Torrent Magnet

#Rush #Hour #x264 #720p