Ruben Brandt, Collector 2018 Full Torrent Magnet Download

Download Torrent Ruben Brandt, Collector 2018 Movie Full in HD Result. Movie Ruben Brandt, Collector 2018 Torrent Download full. Movie Ruben Brandt, Collector 2018 torrent Magnet Download Full. Ruben Brandt, Collector 2018 Full Movie Torrent Download And Magnet Download For your PC And Mobiles. Latest Movie Ruben Brandt, Collector 2018 Download Link In Bottom.

Torrent And Magnet Links Below

Ruben Brandt, Collector 2018 1080p BLURAY REMUX AVC DTS-HD M.A 4.1 – iCMAL [TGx]

Parents Guide

Jump to : Certification Sex & Nudity (2) Violence & Gore (1) Profanity (3) Alcohol, Drugs & Smoking (1) Frightening & Intense Scenes (3)

Certification

MPAA Rated R for nude images and some violence

Certification

Australia:MA15+ (2019) Brazil:14 Canada:PG (British Columbia) Finland:K-12 Germany:Not Rated Hungary:12 Netherlands:6 New Zealand:M Portugal:M/14 Spain:16 (ICAA) Sweden:15 United Kingdom:Not Rated United States:R

Four expert thieves attempt to steal every famous artwork that is haunting their mutual psychotherapist. A detective attempts to find out who the “Collector” is.

Director : Milorad Krstic

Writers : Milorad Krstic (screenplay), Milorad Krstic
Stars : Iván Kamarás, Csaba Márton, Gabriella Hámori

Storyline

A psychotherapist suffers violent nightmares inspired by legendary works of art. Four of his patients, expert thieves, offer to steal the works since he believes that once he owns them, the nightmares will disappear. He becomes a wanted criminal known as “The Collector”. Who will dare to catch him and his gang?

DownloadsRuben Brandt, Collector 2018 1080p BLURAY REMUX AVC DTS-HD M.A 4.1 – iCMAL [TGx]Ruben Brandt Collector 2018 1080p BLURAY REMUX AVC DTS-HD M.A 4.1 – iCMAL.mkv

Format : Matroska

Format version : Version 4

File size : 15.6 GiB

Duration : 1 h 33 min

Overall bit rate mode : Variable

Overall bit rate : 23.8 Mb/s

Movie name : Ruben Brandt Collector 2018 1080p BLURAY REMUX AVC DTS-HD M.A 4.1 – iCMAL

Encoded date : UTC 2021-01-31 22:24:57

Writing application : mkvmerge v10.0.0 (‘To Drown In You’) 64bit

Writing library : libebml v1.3.4 + libmatroska v1.4.5

Video

ID : 1

Format : AVC

Format/Info : Advanced Video Codec

Format profile : [email protected]
Format settings : CABAC / 3 Ref Frames

Format settings, CABAC : Yes

Format settings, Reference frames : 3 frames

Codec ID : V_MPEG4/ISO/AVC

Duration : 1 h 33 min

Bit rate mode : Variable

Bit rate : 21.9 Mb/s

Maximum bit rate : 37.0 Mb/s

Width : 1 920 pixels

Height : 1 080 pixels

Display aspect ratio : 16:9

Frame rate mode : Constant

Frame rate : 23.976 (24000/1001) FPS

Color space : YUV

Chroma subsampling : 4:2:0

Bit depth : 8 bits

Scan type : Progressive

Bits/(Pixel*Frame) : 0.441

Stream size : 14.4 GiB (92%)

Title : REMUX BY iCMAL

Default : Yes

Forced : No

Audio

ID : 2

Format : DTS XLL

Format/Info : Digital Theater Systems

Commercial name : DTS-HD Master Audio

Codec ID : A_DTS

Duration : 1 h 33 min

Bit rate mode : Variable

Bit rate : 1 898 kb/s

Channel(s) : 6 channels

Channel layout : C L R Ls Rs LFE

Sampling rate : 48.0 kHz

Frame rate : 93.750 FPS (512 SPF)

Bit depth : 16 bits

Compression mode : Lossless

Stream size : 1.24 GiB (8%)

Title : REMUX BY iCMAL

Language : English

Default : Yes

Forced : No











Ruben Brandt, Collector 2018 Download Torrent Magnet

#Ruben #Brandt #Collector