Rogue.One.A.Star.Wars.Story.2 Full Torrent Magnet Download

Download Torrent Rogue.One.A.Star.Wars.Story.2 Movie Full in HD Result. Movie Rogue.One.A.Star.Wars.Story.2 Torrent Download full. Movie Rogue.One.A.Star.Wars.Story.2 torrent Magnet Download Full. Rogue.One.A.Star.Wars.Story.2 Full Movie Torrent Download And Magnet Download For your PC And Mobiles. Latest Movie Rogue.One.A.Star.Wars.Story.2 Download Link In Bottom.

Torrent And Magnet Links Below

Rogue.One.A.Star.Wars.Story.2016.BRRip.XviD.B4ND1T69

Director: Gareth Edwards

Writers: Chris Weitz (screenplay by), Tony Gilroy (screenplay by) | 3 more credits »

Stars: Felicity Jones, Diego Luna, Alan Tudyk

Plot/Story:

The daughter of an Imperial scientist joins the Rebel Alliance in a risky move to steal the plans for the Death Star.

General

Complete name : Rogue.One.A.Star.Wars.Story.2016.BRRip.XviD.B4ND1T69.avi

Format : AVI

Format/Info : Audio Video Interleave

File size : 1.15 GiB

Duration : 2 h 13 min

Overall bit rate : 1 227 kb/s

Subtitles : Yes…Hardcoded for non-English parts + file included(HI)

Video

ID : 0

Format : MPEG-4 Visual

Format profile : Advanced [email protected]
Format settings, BVOP : 2

Format settings, QPel : No

Format settings, GMC : No warppoints

Format settings, Matrix : Default (H.263)

Codec ID : XVID

Codec ID/Hint : XviD

Duration : 2 h 13 min

Bit rate : 1 086 kb/s

Width : 720 pixels

Height : 304 pixels

Display aspect ratio : 2.35:1

Frame rate : 24.390 FPS

Color space : YUV

Chroma subsampling : 4:2:0

Bit depth : 8 bits

Scan type : Progressive

Compression mode : Lossy

Bits/(Pixel*Frame) : 0.203

Stream size : 1.02 GiB (88%)

Writing library : XviD 64

Audio

ID : 1

Format : MPEG Audio

Format version : Version 1

Format profile : Layer 3

Codec ID : 55

Codec ID/Hint : MP3

Duration : 2 h 13 min

Bit rate mode : Constant

Bit rate : 128 kb/s

Channel(s) : 2 channels

Sampling rate : 48.0 kHz

Compression mode : Lossy

Stream size : 123 MiB (10%)

Alignment : Aligned on interleaves

Interleave, duration : 24 ms (0.59 video frame)

Screenshots:









Please Seed For As Long As Possible

Or At Least 1:1 Ratio…Thanks

Enjoy Peeps

Rogue.One.A.Star.Wars.Story.2Download Torrent Magnet

#RogueOneAStarWarsStory2