Rogue.2020.1080p.BluRay.[Org. Full Torrent Magnet Download

Download Torrent Rogue.2020.1080p.BluRay.[Org. Movie Full in HD Result. Movie Rogue.2020.1080p.BluRay.[Org. Torrent Download full. Movie Rogue.2020.1080p.BluRay.[Org. torrent Magnet Download Full. Rogue.2020.1080p.BluRay.[Org. Full Movie Torrent Download And Magnet Download For your PC And Mobiles. Latest Movie Rogue.2020.1080p.BluRay.[Org. Download Link In Bottom.

Torrent And Magnet Links Below


Rogue.2020.1080p.BluRay.[Org.DDP2.0-Hindi+DDP5.1-English].MSubs.HEVC~The.PunisheR.mkv

❤️ Now With Original LionsGate Play Hindi Audio [Enhanced in Dolby Digital Plus 2.0] By ~ The.PunisheR ❤️

MediaInfos:
General

Unique ID                                : 121188537625625521823177570157594355783 (0x5B2C1037E6728FAB5F445D80053B2847)

Complete name                            : Rogue.2020.1080p.BluRay.[Org.DDP2.0-Hindi+DDP5.1-English].MSubs.HEVC~The.PunisheR.mkv

Format                                   : Matroska

Format version                           : Version 4 / Version 2

File size                                : 4.27 GiB

Duration                                 : 1 h 45 min

Overall bit rate                         : 5 761 kb/s

Description                              : Encoded By – The.PunisheR

Encoded date                             : UTC 2021-03-12 16:24:12

Writing application                      : mkvmerge v54.0.0 (‘F Maj Pixie’) 64-bit

Writing library                          : libebml v1.4.2 + libmatroska v1.6.3 / Lavf57.83.100

Video

ID                                       : 1

Format                                   : HEVC

Format/Info                              : High Efficiency Video Coding

Format profile                           : [email protected]@Main

Codec ID                                 : V_MPEGH/ISO/HEVC

Duration                                 : 1 h 45 min

Bit rate                                 : 4 686 kb/s

Width                                    : 1 920 pixels

Height                                   : 804 pixels

Display aspect ratio                     : 2.40:1

Frame rate mode                          : Constant

Frame rate                               : 23.976 (24000/1001) FPS

Color space                              : YUV

Chroma subsampling                       : 4:2:0

Bit depth                                : 8 bits

Bits/(Pixel*Frame)                       : 0.127

Stream size                              : 3.47 GiB (81%)

Title                                    : 1080p / 8bit / BluRay / HEVC ~ The.PunisheR

Language                                 : English

Default                                  : Yes

Forced                                   : No

Color range                              : Limited

Color primaries                          : BT.709

Transfer characteristics                 : BT.709

Matrix coefficients                      : BT.709

Audio #1

ID                                       : 2

Format                                   : E-AC-3

Format/Info                              : Enhanced Audio Coding 3

Codec ID                                 : A_EAC3

Duration                                 : 1 h 45 min

Bit rate mode                            : Constant

Bit rate                                 : 384 kb/s

Channel(s)                               : 2 channels

Channel positions                        : Front: L R

Sampling rate                            : 48.0 kHz

Frame rate                               : 187.500 FPS (256 SPF)

Compression mode                         : Lossy

Stream size                              : 291 MiB (7%)

Title                                    : Org. DD+ 2.0 / 384kbps / 48kHz ~ The.PunisheR

Language                                 : Hindi

Service kind                             : Complete Main

Default                                  : Yes

Forced                                   : No

Audio #2

ID                                       : 3

Format                                   : E-AC-3

Format/Info                              : Enhanced Audio Coding 3

Codec ID                                 : A_EAC3

Duration                                 : 1 h 45 min

Bit rate mode                            : Constant

Bit rate                                 : 640 kb/s

Channel(s)                               : 6 channels

Channel positions                        : Front: L C R, Side: L R, LFE

Sampling rate                            : 48.0 kHz

Frame rate                               : 187.500 FPS (256 SPF)

Compression mode                         : Lossy

Stream size                              : 485 MiB (11%)

Title                                    : DD+5.1 / 640kbps / 48Khz ~ The.PunisheR

Language                                 : English

Service kind                             : Complete Main

Default                                  : No

Forced                                   : No

Text #1

ID                                       : 4

Format                                   : UTF-8

Codec ID                                 : S_TEXT/UTF8

Codec ID/Info                            : UTF-8 Plain Text

Duration                                 : 1 h 38 min

Bit rate                                 : 51 b/s

Count of elements                        : 1321

Stream size                              : 37.0 KiB (0%)

Title                                    : English-SRT

Language                                 : English

Default                                  : No

Forced                                   : No

Text #2

ID                                       : 5

ID in the original source medium         : 4608 (0x1200)

Format                                   : PGS

Muxing mode                              : zlib

Codec ID                                 : S_HDMV/PGS

Codec ID/Info                            : Picture based subtitle format used on BDs/HD-DVDs

Duration                                 : 1 h 38 min

Bit rate                                 : 38.2 kb/s

Count of elements                        : 3190

Stream size                              : 27.0 MiB (1%)

Title                                    : English-PGS

Language                                 : English

Default                                  : No

Forced                                   : No

Original source medium                   : Blu-ray

Text #3

ID                                       : 6

ID in the original source medium         : 4609 (0x1201)

Format                                   : PGS

Muxing mode                              : zlib

Codec ID                                 : S_HDMV/PGS

Codec ID/Info                            : Picture based subtitle format used on BDs/HD-DVDs

Duration                                 : 1 h 44 min

Bit rate                                 : 28.2 kb/s

Count of elements                        : 2448

Stream size                              : 21.0 MiB (0%)

Title                                    : Spanish-PGS

Language                                 : Spanish

Default                                  : No

Forced                                   : No

Original source medium                   : Blu-ray

Text #4

ID                                       : 7

ID in the original source medium         : 4610 (0x1202)

Format                                   : PGS

Muxing mode                              : zlib

Codec ID                                 : S_HDMV/PGS

Codec ID/Info                            : Picture based subtitle format used on BDs/HD-DVDs

Duration                                 : 1 h 44 min

Bit rate                                 : 27.6 kb/s

Count of elements                        : 2488

Stream size                              : 20.6 MiB (0%)

Title                                    : Portuguese-PGS

Language                                 : Portuguese

Default                                  : No

Forced                                   : No

Original source medium                   : Blu-ray

Menu
00:00:00.000                             : en:Chapter 01

00:04:05.495                             : en:Chapter 02

00:10:55.446                             : en:Chapter 03

00:22:56.124                             : en:Chapter 04

00:29:20.884                             : en:Chapter 05

00:35:27.291                             : en:Chapter 06

00:42:17.785                             : en:Chapter 07

00:48:10.095                             : en:Chapter 08

00:55:41.129                             : en:Chapter 09

00:59:56.509                             : en:Chapter 10

01:06:03.167                             : en:Chapter 11

01:11:49.305                             : en:Chapter 12

01:19:04.406                             : en:Chapter 13

01:21:53.450                             : en:Chapter 14

01:29:26.903                             : en:Chapter 15

01:34:17.526                             : en:Chapter 16

Screenshots:




Quote:

Source:

Video: Rogue.2020.1080p.BluRay.REMUX.AVC.DTS-HD.MA.5.1-FGT.mkv

Audio: Org. Untouched Lionsgate AAC2.0 Audio By – Telly

Rogue.2020.1080p.BluRay.[Org.Download Torrent Magnet

#Rogue20201080pBluRayOrg