Rocco e i suoi fratelli (1960 Full Torrent Magnet Download

Download Torrent Rocco e i suoi fratelli (1960 Movie Full in HD Result. Movie Rocco e i suoi fratelli (1960 Torrent Download full. Movie Rocco e i suoi fratelli (1960 torrent Magnet Download Full. Rocco e i suoi fratelli (1960 Full Movie Torrent Download And Magnet Download For your PC And Mobiles. Latest Movie Rocco e i suoi fratelli (1960 Download Link In Bottom.

Torrent And Magnet Links Below

IMDB

Code:


General

Complete name : Rocco.e.i.suoi.fratelli.(1960).BDRip.1080p.FLAC.[Borsalino].DE.srt

Format : SubRip

File size : 170 KiB

Text

Format : SubRip

Compression mode : Lossless

General

Complete name : Rocco.e.i.suoi.fratelli.(1960).BDRip.1080p.FLAC.[Borsalino].EL.srt

Format : SubRip

File size : 117 KiB

Text

Format : SubRip

Compression mode : Lossless

General

Complete name : Rocco.e.i.suoi.fratelli.(1960).BDRip.1080p.FLAC.[Borsalino].EN.srt

Format : SubRip

File size : 135 KiB

Text

Format : SubRip

Compression mode : Lossless

General

Complete name : Rocco.e.i.suoi.fratelli.(1960).BDRip.1080p.FLAC.[Borsalino].ES.srt

Format : SubRip

File size : 181 KiB

Text

Format : SubRip

Compression mode : Lossless

General

Complete name : Rocco.e.i.suoi.fratelli.(1960).BDRip.1080p.FLAC.[Borsalino].FR.srt

Format : SubRip

File size : 120 KiB

Text

Format : SubRip

Compression mode : Lossless

General

Complete name : Rocco.e.i.suoi.fratelli.(1960).BDRip.1080p.FLAC.[Borsalino].NL.srt

Format : SubRip

File size : 134 KiB

Text

Format : SubRip

Compression mode : Lossless

General

Complete name : Rocco.e.i.suoi.fratelli.(1960).BDRip.1080p.FLAC.[Borsalino].PT.srt

Format : SubRip

File size : 156 KiB

Text

Format : SubRip

Compression mode : Lossless

General

Complete name : Rocco.e.i.suoi.fratelli.(1960).BDRip.1080p.FLAC.[Borsalino].RO.srt

Format : SubRip

File size : 168 KiB

Text

Format : SubRip

Compression mode : Lossless

General

Complete name : Rocco.e.i.suoi.fratelli.(1960).BDRip.1080p.FLAC.[Borsalino].RU.srt

Format : SubRip

File size : 150 KiB

Text

Format : SubRip

Compression mode : Lossless

General

Complete name : Rocco.e.i.suoi.fratelli.(1960).BDRip.1080p.FLAC.[Borsalino].mkv

Format : Matroska

Format version : Version 4

File size : 7.82 GiB

Duration : 2 h 59 min

Overall bit rate mode : Variable

Overall bit rate : 6 250 kb/s

Movie name : Rocco.e.i.suoi.fratelli.(1960).BDRip.1080p.FLAC.[Borsalino]
Writing application : mkvmerge v56.1.0 (‘My Friend’) 64-bit

Writing library : libebml v1.4.2 + libmatroska v1.6.4

Video

ID : 1

Format : HEVC

Format/Info : High Efficiency Video Coding

Format profile : Main [email protected]@Main

Codec ID : V_MPEGH/ISO/HEVC

Duration : 2 h 59 min

Bit rate : 5 974 kb/s

Width : 1 920 pixels

Height : 1 080 pixels

Display aspect ratio : 16:9

Frame rate mode : Constant

Frame rate : 24.000 FPS

Color space : YUV

Chroma subsampling : 4:2:0

Bit depth : 10 bits

Bits/(Pixel*Frame) : 0.120

Stream size : 7.47 GiB (96%)

Title : Italian

Language : Italian

Default : Yes

Forced : No

Color range : Limited

Color primaries : BT.709

Transfer characteristics : BT.709

Matrix coefficients : BT.709

Audio

ID : 2

Format : FLAC

Format/Info : Free Lossless Audio Codec

Codec ID : A_FLAC

Duration : 2 h 59 min

Bit rate mode : Variable

Bit rate : 274 kb/s

Channel(s) : 2 channels

Channel layout : L R

Sampling rate : 48.0 kHz

Frame rate : 11.719 FPS (4096 SPF)

Bit depth : 16 bits

Compression mode : Lossless

Stream size : 351 MiB (4%)

Title : Italian

Writing library : libFLAC 1.2.1 (UTC 2007-09-17)

Language : Italian

Default : No

Forced : No

Spoken language

Subtitles (srt files)

















Rocco e i suoi fratelli (1960Download Torrent Magnet

#Rocco #suoi #fratelli