Roadgames 1981 1080p BLURAY R Full Torrent Magnet Download

Download Torrent Roadgames 1981 1080p BLURAY R Movie Full in HD Result. Movie Roadgames 1981 1080p BLURAY R Torrent Download full. Movie Roadgames 1981 1080p BLURAY R torrent Magnet Download Full. Roadgames 1981 1080p BLURAY R Full Movie Torrent Download And Magnet Download For your PC And Mobiles. Latest Movie Roadgames 1981 1080p BLURAY R Download Link In Bottom.

Torrent And Magnet Links Below

Roadgames 1981 1080p BLURAY REMUX AVC AC3 – iCMAL [TGx]

Parents Guide

Add to guide

Showing all 5 items

Jump to: Certification Sex & Nudity (1) Violence & Gore (1) Profanity (1) Alcohol, Drugs & Smoking (1) Frightening & Intense Scenes (1)

Certification

Edit

Certification
Australia:M Canada:PG (Ontario) Canada:13+ (Québec) Finland:K-16 France:Tous publics Iceland:16 Norway:15 (DVD rating) Norway:16 (1982, cinema rating) Portugal:M/12 Sweden:15 United Kingdom:15 United Kingdom:AA United States:PG (certificate #26269) West Germany:12 (cut)

A laid-back American truck driver in south Australia starts to suspect a man driving a green van of killing young women along his route, and proceeds to play a cat-and-mouse game in order to catch him red-handed.

Director: Richard Franklin

Writers: Everett De Roche (screenplay), Everett De Roche
Stars: Stacy Keach, Jamie Lee Curtis, Marion Edward

Storyline

Pat Quid is driving a semi across Australia. On the way he encounters various other travellers and the occasional hitchhikers repeatedly as they’re traveling the same road. A favorite pastime of Pat is to play games to pass the time on the journey (such as to make up backgrounds of the other people on the road). Pamela is one hitchhiker he picks up. But when she disappears, he suspects that the driver of a van who has been acting a little strange (Smith or Jones), may be the serial killer mentioned on the radio. But his pursuit of the van driver brings him to the attention of the police, who begin to suspect him.

DownloadsRoadgames 1981 1080p BLURAY REMUX AVC AC3 – iCMAL [TGx]Roadgames 1981 1080p BLURAY REMUX AVC AC3 – iCMAL.mkv

Format : Matroska

Format version : Version 4

File size : 24.7 GiB

Duration : 1 h 40 min

Overall bit rate mode : Variable

Overall bit rate : 35.2 Mb/s

Movie name : Roadgames 1981 1080p BLURAY REMUX AVC AC3 – iCMAL

Encoded date : UTC 2021-01-31 14:47:23

Writing application : mkvmerge v10.0.0 (‘To Drown In You’) 64bit

Writing library : libebml v1.3.4 + libmatroska v1.4.5

Video

ID : 1

Format : AVC

Format/Info : Advanced Video Codec

Format profile : [email protected]
Format settings : CABAC / 3 Ref Frames

Format settings, CABAC : Yes

Format settings, Reference frames : 3 frames

Codec ID : V_MPEG4/ISO/AVC

Duration : 1 h 40 min

Bit rate mode : Variable

Bit rate : 35.0 Mb/s

Maximum bit rate : 38.0 Mb/s

Width : 1 920 pixels

Height : 1 080 pixels

Display aspect ratio : 16:9

Frame rate mode : Constant

Frame rate : 23.976 (24000/1001) FPS

Color space : YUV

Chroma subsampling : 4:2:0

Bit depth : 8 bits

Scan type : Progressive

Bits/(Pixel*Frame) : 0.703

Stream size : 24.6 GiB (99%)

Title : By iCMAL

Default : Yes

Forced : No

Color range : Limited

Color primaries : BT.709

Transfer characteristics : BT.709

Matrix coefficients : BT.709

Audio

ID : 2

Format : AC-3

Format/Info : Audio Coding 3

Commercial name : Dolby Digital

Codec ID : A_AC3

Duration : 1 h 40 min

Bit rate mode : Constant

Bit rate : 192 kb/s

Channel(s) : 2 channels

Channel layout : L R

Sampling rate : 48.0 kHz

Frame rate : 31.250 FPS (1536 SPF)

Compression mode : Lossy

Stream size : 138 MiB (1%)

Title : By iCMAL

Language : English

Service kind : Complete Main

Default : Yes

Forced : No

Text

ID : 3

Format : PGS

Muxing mode : zlib

Codec ID : S_HDMV/PGS

Codec ID/Info : Picture based subtitle format used on BDs/HD-DVDs

Duration : 1 h 39 min

Bit rate : 12.8 kb/s

Count of elements : 2410

Stream size : 9.16 MiB (0%)

Title : By iCMAL

Language : English

Default : Yes

Forced : No


















Roadgames 1981 1080p BLURAY RDownload Torrent Magnet

#Roadgames #1080p #BLURAY