Ritratto della giovane in fia Full Torrent Magnet Download

Download Torrent Ritratto della giovane in fia Movie Full in HD Result. Movie Ritratto della giovane in fia Torrent Download full. Movie Ritratto della giovane in fia torrent Magnet Download Full. Ritratto della giovane in fia Full Movie Torrent Download And Magnet Download For your PC And Mobiles. Latest Movie Ritratto della giovane in fia Download Link In Bottom.

Torrent And Magnet Links Below

Ritratto della giovane in fiamme – Portrait de la jeune fille en feu (2019) 720p h264 Ac3 Ita Fre Sub Ita NUita – MIRCrew

NO FOUND ONLY ORIGINAL RELEASE

My release is always in double track audio italian and Original audio

for select it use VLC or dvd player home

not use wmp

Ritratto della giovane in fiamme – Portrait de la jeune fille en feu (2019) 720p h264 Ac3 Ita Fre Sub Ita NUita – MIRCrew

Quality MIRCrew in HD 720p da 2,3 gb

Titolo originale Portrait de la jeune fille en feu

Lingua originale francese, italiano

Paese di produzione Francia

Anno 2019

Durata 119 min

Rapporto 1,85:1

Genere drammatico, storico, sentimentale

Regia Céline Sciamma

Sceneggiatura Céline Sciamma

Noémie Merlant: Marianne

Adèle Haenel: Héloïse

Luàna Bajrami: Sophie

Valeria Golino: contessa

Francia, fine XVIII secolo. Durante una lezione di pittura, una delle allieve della giovane artista Marianne le chiede notizie a proposito di un quadro che lei ha intitolato Ritratto della giovane in fiamme. Marianne, in un lungo flashback, ricorda la sua storia avvenuta anni prima. L’artista viene chiamata a lavorare su un’isola della Bretagna, in casa di una nobile decaduta, per dipingere il ritratto di sua figlia Héloïse

On an isolated island in Brittany at the end of the eighteenth century, a female painter is obliged to paint a wedding portrait of a young woman.

[spoiler]General

Complete name : Ritratto della giovane in fiamme – Portrait de la jeune fille en feu (2019) 720p h264 Ac3 Ita Fre Sub Ita NUita – MIRCrew.mkv

Format : Matroska

Format version : Version 2

File size : 2.36 GiB

Duration : 2h 2mn

Overall bit rate : 2 769 Kbps

Movie name : MIRCrew

Encoded date : UTC 2020-06-30 16:32:49

Writing application : Lavf54.63.100

Writing library : Lavf54.63.100

ARTIST : robbyrs

COMMENT : MIRCrew

COPYRIGHT : MIRCrew

Video

ID : 1

Format : AVC

Format/Info : Advanced Video Codec

Format profile : [email protected]
Format settings, CABAC : Yes

Format settings, ReFrames : 2 frames

Codec ID : V_MPEG4/ISO/AVC

Duration : 2h 2mn

Bit rate : 1 900 Kbps

Width : 1 272 pixels

Height : 688 pixels

Display aspect ratio : 1.856

Frame rate mode : Variable

Frame rate : 24.000 fps

Color space : YUV

Chroma subsampling : 4:2:0

Bit depth : 8 bits

Scan type : Progressive

Bits/(Pixel*Frame) : 0.090

Stream size : 1.55 GiB (66%)

Title : [email protected]
Writing library : x264 core 130 r2273

Encoding settings : cabac=1 / ref=2 / deblock=1:-1:-1
Language : Italian

Default : No

Forced : No

DURATION : 02:02:12.084000000

Audio #1

ID : 2

Format : AC-3

Format/Info : Audio Coding 3

Mode extension : CM (complete main)

Codec ID : A_AC3

Duration : 2h 2mn

Bit rate mode : Constant

Bit rate : 448 Kbps

Channel(s) : 6 channels

Channel positions : Front: L C R, Side: L R, LFE

Sampling rate : 48.0 KHz

Bit depth : 16 bits

Compression mode : Lossy

Delay relative to video : 1mn 5s

Stream size : 392 MiB (16%)

Title : Ita Ac3 5.1

Language : Italian

Default : Yes

Forced : No

Audio #2

ID : 3

Format : AC-3

Format/Info : Audio Coding 3

Mode extension : CM (complete main)

Codec ID : A_AC3

Duration : 2h 2mn

Bit rate mode : Constant

Bit rate : 448 Kbps

Channel(s) : 6 channels

Channel positions : Front: L C R, Side: L R, LFE

Sampling rate : 48.0 KHz

Bit depth : 16 bits

Compression mode : Lossy

Delay relative to video : 1mn 5s

Stream size : 392 MiB (16%)

Title : Fre Ac3 5.1

Language : French

Default : No

Forced : No

[/spoiler]

Ritratto della giovane in fiaDownload Torrent Magnet

#Ritratto #della #giovane #fia