Rise of the Legend – La nasci Full Torrent Magnet Download

Download Torrent Rise of the Legend – La nasci Movie Full in HD Result. Movie Rise of the Legend – La nasci Torrent Download full. Movie Rise of the Legend – La nasci torrent Magnet Download Full. Rise of the Legend – La nasci Full Movie Torrent Download And Magnet Download For your PC And Mobiles. Latest Movie Rise of the Legend – La nasci Download Link In Bottom.

Torrent And Magnet Links Below

Rise of the Legend – La nascita della leggenda (2014) 480p h264 Ac3 Ita Chn Sub Ita Eng – MIRCrew

NO FOUND ONLY ORIGINAL RELEASE

My release is always in double track audio italian and Original audio

for select it use VLC or dvd player home

not use wmp

ENGLISH SUBTITLE INSIDE

Rise of the Legend – La nascita della leggenda

Quality MIRCrew in 480p da 2,0 gb

Titolo originale Huang feihong zhi yingxiong you meng

Paese di produzione Hong Kong

Anno 2014

Durata 131 min

Genere azione

Regia Roy Chow

Sammo Hung: Maestro Lui

Eddie Peng: Wong Fei Hung

Zhang Jin: Wu Long

La storia del leggendario maestro di kung fu Wong Fei-hung (Eddie Peng), all’epoca un giovane orfano in cerca di vendetta in seguito alla morte del padre. Nel 1868, durante periodo dell’ultima dinastia Qing, la corruzione della corte imperiale che dilaga senza alcun freno porta le classi inferiori a dividersi in fazioni e a darsi battaglia per il controllo delle zone più importanti. A Guangzhou i Tigre Nera e i Mare del Nord, due gang rivali, si contendono da anni il controllo del porto di Huangpu.

An orphan, whose father has been killed by dark power, attempts to bring justice back to the town.

[spoiler]General

Complete name : Rise of the Legend 480p (2014) h264 Ac3 Ita Chn Sub Ita Eng – MIRCrewRise of the Legend 480p (2014) h264 Ac3 Ita Chn Sub Ita Eng – MIRCrew.mkv

Format : Matroska

Format version : Version 2

File size : 2.06 GiB

Duration : 2h 11mn

Overall bit rate : 2 232 Kbps

Movie name : MIRCrew

Encoded date : UTC 2021-05-21T05:36:20Z

Writing application : mkvmerge v5.4.0 (‘Piper’) built on Mar 10 2012 13:34:39

Writing library : Lavf55.12.0

Video

ID : 1

Format : AVC

Format/Info : Advanced Video Codec

Format profile : [email protected]
Format settings, CABAC : Yes

Format settings, ReFrames : 4 frames

Codec ID : V_MPEG4/ISO/AVC

Duration : 2h 11mn

Bit rate : 1 700 Kbps

Width : 960 pixels

Height : 400 pixels

Display aspect ratio : 2.40:1

Frame rate : 23.976 fps

Color space : YUV

Chroma subsampling : 4:2:0

Bit depth : 8 bits

Scan type : Progressive

Bits/(Pixel*Frame) : 0.185

Stream size : 1.54 GiB (75%)

Title : MIRCrew

Writing library : x264 core 142 r2479 dd79a61

Encoding settings : cabac=1 / ref=3 / deblock=1:0:0
Language : Italian

Default : Yes

Forced : No

Color primaries : BT.601-6 525, BT.1358 525, BT.1700 NTSC, SMPTE 170M

Transfer characteristics : BT.709-5, BT.1361

Matrix coefficients : BT.601-6 525, BT.1358 525, BT.1700 NTSC, SMPTE 170M

Audio #1

ID : 2

Format : AC-3

Format/Info : Audio Coding 3

Mode extension : CM (complete main)

Codec ID : A_AC3

Duration : 2h 11mn

Bit rate mode : Constant

Bit rate : 256 Kbps

Channel(s) : 2 channels

Channel positions : Front: L R

Sampling rate : 48.0 KHz

Bit depth : 16 bits

Compression mode : Lossy

Delay relative to video : -5ms

Stream size : 242 MiB (11%)

Title : Ita Ac3 2.0

Language : Italian

Default : Yes

Forced : No

Audio #2

ID : 3

Format : AC-3

Format/Info : Audio Coding 3

Mode extension : CM (complete main)

Codec ID : A_AC3

Duration : 2h 11mn

Bit rate mode : Constant

Bit rate : 256 Kbps

Channel(s) : 2 channels

Channel positions : Front: L R

Sampling rate : 48.0 KHz

Bit depth : 16 bits

Compression mode : Lossy

Delay relative to video : -5ms

Stream size : 242 MiB (11%)

Title : Chn Ac3 2.0

Language : Chinese

Default : No

Forced : No

[/spoiler]

Rise of the Legend – La nasciDownload Torrent Magnet

#Rise #Legend #nasci