Rim of the World (2019) 1080p Full Torrent Magnet Download

Download Torrent Rim of the World (2019) 1080p Movie Full in HD Result. Movie Rim of the World (2019) 1080p Torrent Download full. Movie Rim of the World (2019) 1080p torrent Magnet Download Full. Rim of the World (2019) 1080p Full Movie Torrent Download And Magnet Download For your PC And Mobiles. Latest Movie Rim of the World (2019) 1080p Download Link In Bottom.

Torrent And Magnet Links Below

Rim of the World (2019) 1080p h264 Ac3 5.1 Ita Eng Multisub – MIRCrew

NO FOUND ONLY ORIGINAL RELEASE

My release is always in double track audio italian and Original audio

for select it use VLC or dvd player home

not use wmp

Rim of the World (2019)

Quality MIRCrew in HD 1080p da 2,3 gb

Titolo originale Rim of the World

Lingua originale inglese

Paese di produzione Stati Uniti d’America

Anno 2019

Durata 99 min

Genere fantascienza

Regia McG

Sceneggiatura Zack Stentz

Produttore McG ed Mary Viola

Casa di produzione Wonderland Sound and Vision

Distribuzione in italiano Netflix

Montaggio Vincent Tabaillon

Musiche Bear McCreary

Jack Gore: Alex

Miya Cech: ZhenZhen

Lil’ P-Nut: Dariush

Alessio Scalzotto: Gabriel

Andrew Bachelor: Logan

Michael Beach: Generale Khoury

Annabeth Gish: Grace

Scott MacArthur: Lou

Dean Jagger: Capitano Hawking

Lynn Collins: Maggiore Collins

Punam Patel: Angeline

In California al campo estivo “Rim of the World” (“La fine del mondo”) arrivano tra gli altri tre adolescenti, diversissimi tra loro: Alex, un giovane orfano appassionato di astronomia; ZhenZhen, una ragazza cinese fuggita da casa e Dariush, il figlio arrogante e sbruffone di un ricco commerciante afro-americano

Alex, a socially reclusive boy who recently lost his father in a fire, reluctantly attends a summer camp in southern California called “Rim of the World”. He meets two other “misfits” – Zhen Zhen, an adorable orphan from China, and Dariush, an outspoken boy from a rich family.

[spoiler]General

Complete name : Rim of the World (2019) 1080p h264 Ac3 5.1 Ita Eng Multisub – MIRCrew.mkv

Format : Matroska

Format version : Version 2

File size : 2.30 GiB

Duration : 1h 39mn

Overall bit rate : 3 327 Kbps

Movie name : MIRCrew

Encoded date : UTC 2021-05-31T06:28:14Z

Writing application : mkvmerge v5.4.0 (‘Piper’) built on Mar 10 2012 13:34:39

Writing library : Lavf55.12.0

Video

ID : 1

Format : AVC

Format/Info : Advanced Video Codec

Format profile : [email protected]
Format settings, CABAC : Yes

Format settings, ReFrames : 4 frames

Codec ID : V_MPEG4/ISO/AVC

Duration : 1h 39mn

Bit rate : 2 428 Kbps

Nominal bit rate : 2 600 Kbps

Width : 1 920 pixels

Height : 960 pixels

Display aspect ratio : 2.000

Frame rate mode : Variable

Frame rate : 23.976 fps

Color space : YUV

Chroma subsampling : 4:2:0

Bit depth : 8 bits

Scan type : Progressive

Bits/(Pixel*Frame) : 0.055

Stream size : 1.68 GiB (73%)

Title : MIRCrew

Writing library : x264 core 142 r2479 dd79a61

Encoding settings : cabac=1 / ref=3 / deblock=1:0:0
Language : Italian

Default : Yes

Forced : No

Color primaries : BT.709-5, BT.1361, IEC 61966-2-4, SMPTE RP177

Transfer characteristics : BT.709-5, BT.1361

Matrix coefficients : BT.709-5, BT.1361, IEC 61966-2-4 709, SMPTE RP177

Audio #1

ID : 2

Format : AC-3

Format/Info : Audio Coding 3

Mode extension : CM (complete main)

Codec ID : A_AC3

Duration : 1h 39mn

Bit rate mode : Constant

Bit rate : 384 Kbps

Channel(s) : 6 channels

Channel positions : Front: L C R, Side: L R, LFE

Sampling rate : 48.0 KHz

Bit depth : 16 bits

Compression mode : Lossy

Delay relative to video : -5ms

Stream size : 272 MiB (12%)

Title : Ita Ac3 5.1

Language : Italian

Default : Yes

Forced : No

Audio #2

ID : 3

Format : AC-3

Format/Info : Audio Coding 3

Mode extension : CM (complete main)

Codec ID : A_AC3

Duration : 1h 39mn

Bit rate mode : Constant

Bit rate : 448 Kbps

Channel(s) : 6 channels

Channel positions : Front: L C R, Side: L R, LFE

Sampling rate : 48.0 KHz

Bit depth : 16 bits

Compression mode : Lossy

Delay relative to video : -5ms

Stream size : 318 MiB (13%)

Title : Eng Ac3 5.1

Language : English

Default : No

Forced : No

Text #1

ID : 4

Format : ASS

Codec ID : S_TEXT/ASS

Codec ID/Info : Advanced Sub Station Alpha

Compression mode : Lossless

Language : German

Default : No

Forced : No

Text #2

ID : 5

Format : ASS

Codec ID : S_TEXT/ASS

Codec ID/Info : Advanced Sub Station Alpha

Compression mode : Lossless

Language : Greek

Default : No

Forced : No

Text #3

ID : 6

Format : ASS

Codec ID : S_TEXT/ASS

Codec ID/Info : Advanced Sub Station Alpha

Compression mode : Lossless

Language : French

Default : No

Forced : No

Text #4

ID : 7

Format : ASS

Codec ID : S_TEXT/ASS

Codec ID/Info : Advanced Sub Station Alpha

Compression mode : Lossless

Language : Italian

Default : No

Forced : No

Text #5

ID : 8

Format : ASS

Codec ID : S_TEXT/ASS

Codec ID/Info : Advanced Sub Station Alpha

Compression mode : Lossless

Language : English

Default : No

Forced : No

[/spoiler]

Rim of the World (2019) 1080pDownload Torrent Magnet

#Rim #World #1080p