Restless.Natives.1985.BRRip.X Full Torrent Magnet Download

Download Torrent Restless.Natives.1985.BRRip.X Movie Full in HD Result. Movie Restless.Natives.1985.BRRip.X Torrent Download full. Movie Restless.Natives.1985.BRRip.X torrent Magnet Download Full. Restless.Natives.1985.BRRip.X Full Movie Torrent Download And Magnet Download For your PC And Mobiles. Latest Movie Restless.Natives.1985.BRRip.X Download Link In Bottom.

Torrent And Magnet Links Below

Restless.Natives.1985.BRRip.XviD.B4ND1T69

Director: Michael Hoffman

Writer: Ninian Dunnett

Stars: Vincent Friell, Ned Beatty, Joe Mullaney

Plot/Story:

Two Scottish friends become local folk heroes and tourist attractions when they start holding up tour buses with novelty items.

General

Complete name : Restless.Natives.1985.BRRip.XviD.B4ND1T69.avi

Format : AVI

Format/Info : Audio Video Interleave

File size : 1.09 GiB

Duration : 1 h 29 min

Overall bit rate : 1 741 kb/s

Subtitles : Yes…Included(HI)

Video

ID : 0

Format : MPEG-4 Visual

Format profile : Advanced [email protected]
Format settings, BVOP : 2

Format settings, QPel : No

Format settings, GMC : No warppoints

Format settings, Matrix : Default (H.263)

Codec ID : XVID

Codec ID/Hint : XviD

Duration : 1 h 29 min

Bit rate : 1 600 kb/s

Width : 720 pixels

Height : 384 pixels

Display aspect ratio : 1.85:1

Frame rate : 24.000 FPS

Color space : YUV

Chroma subsampling : 4:2:0

Bit depth : 8 bits

Scan type : Progressive

Compression mode : Lossy

Bits/(Pixel*Frame) : 0.241

Stream size : 1.00 GiB (92%)

Writing library : XviD 64

Audio

ID : 1

Format : MPEG Audio

Format version : Version 1

Format profile : Layer 3

Codec ID : 55

Codec ID/Hint : MP3

Duration : 1 h 29 min

Bit rate mode : Constant

Bit rate : 128 kb/s

Channel(s) : 2 channels

Sampling rate : 48.0 kHz

Compression mode : Lossy

Stream size : 82.2 MiB (7%)

Alignment : Aligned on interleaves

Interleave, duration : 24 ms (0.58 video frame)

Screenshots:









Please Seed For As Long As Possible

Or At Least 1:1 Ratio…Thanks

Enjoy Peeps

Restless.Natives.1985.BRRip.XDownload Torrent Magnet

#RestlessNatives1985BRRipX