Resistance – La voce del sile Full Torrent Magnet Download

Download Torrent Resistance – La voce del sile Movie Full in HD Result. Movie Resistance – La voce del sile Torrent Download full. Movie Resistance – La voce del sile torrent Magnet Download Full. Resistance – La voce del sile Full Movie Torrent Download And Magnet Download For your PC And Mobiles. Latest Movie Resistance – La voce del sile Download Link In Bottom.

Torrent And Magnet Links Below

Resistance – La voce del silenzio (2020) 720p h264 Ac3 5.1 Ita Eng Sub Ita Eng – MIRCrew


NO FOUND ONLY ORIGINAL RELEASE

My release is always in double track audio italian and Original audio

for select it use VLC or dvd player home

not use wmp

Resistance – La voce del silenzio (2020)

Quality MIRCrew on HD 720p da 2,3 gb

Titolo originale Resistance

Lingua originale inglese, tedesco

Paese di produzione Stati Uniti d’America, Regno Unito, Francia, Germania

Anno 2020

Durata 120 min

Genere drammatico, biografico, guerra

Regia Jonathan Jakubowicz

Sceneggiatura Jonathan Jakubowicz

Fotografia M.I. Littin-Menz

Montaggio Alexander Berner, Jonathan Jakubowicz

Effetti speciali Rodrigo Tomasso, Martin Pryca

Musiche Angelo Milli

Scenografia Tomas Voth

Costumi Katharina Ost

Jesse Eisenberg: Marcel Marceau

Clémence Poésy: Emma

Matthias Schweighöfer: Klaus Barbie

Félix Moati: Alain

Géza Röhrig: Georges Loinger

Karl Markovics: Charles Mangel

Vica Kerekes: Mila

Bella Ramsey: Elsbeth

Ed Harris: George S. Patton

Édgar Ramírez: Sigmund

Il giovane Marcel è un aspirante mimo. Poco dopo lo scoppio della seconda guerra mondiale la Francia viene invasa dai tedeschi. Il ragazzo, insieme al fratello e ad un nutrito gruppo di altri giovani, si unisce alla resistenza francese, lottando anche contro le persecuzioni di Klaus Barbie, il boia di Lione, ufficiale delle Schutzstaffel e all’epoca comandante della Gestapo nel capoluogo francese.

The story of mime Marcel Marceau as he works with a group of Jewish boy scouts and the French Resistance to save the lives of ten thousand orphans during World War II.

General

Complete name : Resistance – La voce del silenzio (2020) 720p h264 Ac3 5.1 Ita Eng Sub Ita Eng – MIRCrewResistance – La voce del silenzio (2020) 720p h264 Ac3 5.1 Ita Eng Sub Ita Eng – MIRCrew.mkv

Format : Matroska

Format version : Version 2

File size : 2.36 GiB

Duration : 2h 1mn

Overall bit rate : 2 779 Kbps

Movie name : MIRCrew

Encoded date : UTC 2020-09-25 20:52:07

Writing application : mkvmerge v5.4.0 (‘Piper’) built on Mar 10 2012 13:34:39

Writing library : Lavf54.63.100

COMMENT : MIRCrew

Video

ID : 1

Format : AVC

Format/Info : Advanced Video Codec

Format profile : [email protected]
Format settings, CABAC : Yes

Format settings, ReFrames : 2 frames

Codec ID : V_MPEG4/ISO/AVC

Duration : 2h 1mn

Bit rate : 1 900 Kbps

Width : 1 280 pixels

Height : 528 pixels

Display aspect ratio : 2.40:1

Frame rate mode : Variable

Frame rate : 24.000 fps

Color space : YUV

Chroma subsampling : 4:2:0

Bit depth : 8 bits

Scan type : Progressive

Bits/(Pixel*Frame) : 0.117

Stream size : 1.55 GiB (66%)

Title : MIRCrew

Writing library : x264 core 130 r2273

Encoding settings : cabac=1 / ref=2 / deblock=1:-1:-1

Language : Italian

Default : No

Forced : No

DURATION : 02:01:24.042000000

Audio #1

ID : 2

Format : AC-3

Format/Info : Audio Coding 3

Mode extension : CM (complete main)

Codec ID : A_AC3

Duration : 2h 1mn

Bit rate mode : Constant

Bit rate : 448 Kbps

Channel(s) : 6 channels

Channel positions : Front: L C R, Side: L R, LFE

Sampling rate : 48.0 KHz

Bit depth : 16 bits

Compression mode : Lossy

Delay relative to video : -5ms

Stream size : 389 MiB (16%)

Title : Ita Ac3 5.1

Language : Italian

Default : Yes

Forced : No

Audio #2

ID : 3

Format : AC-3

Format/Info : Audio Coding 3

Mode extension : CM (complete main)

Codec ID : A_AC3

Duration : 2h 1mn

Bit rate mode : Constant

Bit rate : 448 Kbps

Channel(s) : 6 channels

Channel positions : Front: L C R, Side: L R, LFE

Sampling rate : 48.0 KHz

Bit depth : 16 bits
Compression mode : Lossy

Delay relative to video : -5ms

Stream size : 389 MiB (16%)

Title : Eng Ac3 5.1

Language : English

Default : No

Forced : No

Resistance – La voce del sileDownload Torrent Magnet

#Resistance #voce #del #sile