Rege 2014 Marathi 720p WebRip Full Torrent Magnet Download

Download Torrent Rege 2014 Marathi 720p WebRip Movie Full in HD Result. Movie Rege 2014 Marathi 720p WebRip Torrent Download full. Movie Rege 2014 Marathi 720p WebRip torrent Magnet Download Full. Rege 2014 Marathi 720p WebRip Full Movie Torrent Download And Magnet Download For your PC And Mobiles. Latest Movie Rege 2014 Marathi 720p WebRip Download Link In Bottom.

Torrent And Magnet Links Below










General

Complete name : Rege 2014 Marathi 720p WebRip x264 AAC [TMB].mp4

Format : MPEG-4

Format profile : Base Media / Version 2

Codec ID : mp42 (mp42/iso2/avc1/mp41)

File size : 1.45 GiB

Duration : 1 h 54 min

Overall bit rate : 1 806 kb/s

Video

Format : AVC

Format/Info : Advanced Video Codec

Format profile : [email protected]
Format settings : CABAC / 4 Ref Frames

Format settings, CABAC : Yes

Format settings, Reference : 4 frames

Codec ID : avc1

Codec ID/Info : Advanced Video Coding

Duration : 1 h 54 min

Source duration : 1 h 54 min

Bit rate : 1 707 kb/s

Width : 1 280 pixels

Height : 672 pixels

Display aspect ratio : 2.084

Frame rate mode : Variable

Frame rate : 25.000 FPS

Minimum frame rate : 14.286 FPS

Maximum frame rate : 25.000 FPS

Color space : YUV

Chroma subsampling : 4:2:0

Bit depth : 8 bits

Scan type : Progressive

Bits/(Pixel*Frame) : 0.079

Stream size : 1.37 GiB (95%)

Source stream size : 1.37 GiB (95%)

Audio

Format : AAC LC

Format/Info : Advanced Audio Codec Low Complexity

Codec ID : mp4a-40-2

Duration : 1 h 54 min

Bit rate mode : Constant

Bit rate : 92.6 kb/s

Channel(s) : 2 channels

Channel layout : L R

Sampling rate : 48.0 kHz

Frame rate : 46.875 FPS (1024 SPF)

Compression mode : Lossy

Stream size : 75.9 MiB (5%)

Source : 1080p [email protected]

Rip & Uploaded & Shared by TMB

Seeding 24×7… Extreme Seeding…

Enjoy!

Rege 2014 Marathi 720p WebRipDownload Torrent Magnet

#Rege #Marathi #720p #WebRip