Real Steel 2011 x264 720p Esu Full Torrent Magnet Download

Download Torrent Real Steel 2011 x264 720p Esu Movie Full in HD Result. Movie Real Steel 2011 x264 720p Esu Torrent Download full. Movie Real Steel 2011 x264 720p Esu torrent Magnet Download Full. Real Steel 2011 x264 720p Esu Full Movie Torrent Download And Magnet Download For your PC And Mobiles. Latest Movie Real Steel 2011 x264 720p Esu Download Link In Bottom.

Torrent And Magnet Links Below

Admin , Moderator , Noir, Ex0duS5150, theeshiznit, MisterQ, UserHEVC, miok, Silmarillion, Mr. Blue, MaDHeX and many more ;

Join Us On TeleGram

https://t.me/gopisahit

Real Steel 2011 x264 720p Esub BluRay Dual Audio English Hindi THE GOPI SAHI

Format : Matroska

Format version : Version 4

File size : 1.16 GiB

Duration : 2 h 6 min

Overall bit rate : 1 312 kb/s

Movie name : Real Steel 2011 GOPI SAHI

Encoded date : UTC 2021-06-05 02:43:12

Video

ID : 1

Format : AVC

Format/Info : Advanced Video Codec

Format profile : [email protected]
Format settings : CABAC / 5 Ref Frames

Format settings, CABAC : Yes

Format settings, Reference fra : 5 frames

Codec ID : V_MPEG4/ISO/AVC

Duration : 2 h 6 min

Bit rate : 899 kb/s

Width : 1 280 pixels

Height : 544 pixels

Display aspect ratio : 2.35:1

Frame rate mode : Constant

Frame rate : 23.976 (24000/1001) FPS

Color space : YUV

Chroma subsampling : 4:2:0

Bit depth : 8 bits

Scan type : Progressive

Bits/(Pixel*Frame) : 0.054

Stream size : 816 MiB (69%)

Title : GOPI SAHI

Writing library : x264 core 157 r2935 545de2f

Audio #1

ID : 2

Format : AAC LC

Format/Info : Advanced Audio Codec Low Complexity

Codec ID : A_AAC-2

Duration : 2 h 6 min

Bit rate : 192 kb/s

Channel(s) : 6 channels

Channel layout : L R C Cb Lb Rb

Sampling rate : 48.0 kHz

Frame rate : 46.875 FPS (1024 SPF)

Compression mode : Lossy

Stream size : 174 MiB (15%)

Title : GOPI SAHI

Language : Hindi

Default : Yes

Forced : No

Audio #2

ID : 3

Format : AAC LC

Format/Info : Advanced Audio Codec Low Complexity

Codec ID : A_AAC-2

Duration : 2 h 6 min

Bit rate : 192 kb/s

Channel(s) : 6 channels

Channel layout : L R C Cb Lb Rb

Sampling rate : 48.0 kHz

Frame rate : 46.875 FPS (1024 SPF)

Compression mode : Lossy

Stream size : 174 MiB (15%)

Title : GOPI SAHI

Language : English

Default : No

Forced : No

Text #1

ID : 4

Format : PGS

Muxing mode : zlib

Codec ID : S_HDMV/PGS

Codec ID/Info : Picture based subtitle format used on BDs/HD-DVDs

Duration : 2 h 0 min

Bit rate : 37.8 kb/s

Count of elements : 2974

Stream size : 32.6 MiB (3%)

Title : GOPI SAHI

Language : English

Default : No

Forced : No

Text #2

ID : 5

Format : PGS

Muxing mode : zlib

Codec ID : S_HDMV/PGS

Codec ID/Info : Picture based subtitle format used on BDs/HD-DVDs

Duration : 2 h 0 min

Bit rate : 42.9 kb/s

Count of elements : 3574

Stream size : 37.1 MiB (3%)

Title : GOPI SAHI

Language : English

Default : Yes

Forced : Yes

Menu

00:00:00.000 : :Chapter 1

00:03:00.472 : :Chapter 2

00:10:38.304 : :Chapter 3

00:18:50.546 : :Chapter 4

00:24:29.885 : :Chapter 5

00:34:14.970 : :Chapter 6

00:41:22.355 : :Chapter 7

00:48:46.132 : :Chapter 8

00:52:08.709 : :Chapter 9

00:57:15.015 : :Chapter 10

01:05:01.231 : :Chapter 11

01:12:33.975 : :Chapter 12

01:18:27.119 : :Chapter 13

01:26:28.517 : :Chapter 14

01:32:50.940 : :Chapter 15

01:39:19.704 : :Chapter 16

01:48:22.663 : :Chapter 17

01:52:26.865 : :Chapter 18

01:57:21.868 : :Chapter 19

02:00:50.368 : :Chapter 20

Real Steel 2011 x264 720p EsuDownload Torrent Magnet

#Real #Steel #x264 #720p #Esu