Raya.and.the.Last.Dragon.2021 Full Torrent Magnet Download

Download Torrent Raya.and.the.Last.Dragon.2021 Movie Full in HD Result. Movie Raya.and.the.Last.Dragon.2021 Torrent Download full. Movie Raya.and.the.Last.Dragon.2021 torrent Magnet Download Full. Raya.and.the.Last.Dragon.2021 Full Movie Torrent Download And Magnet Download For your PC And Mobiles. Latest Movie Raya.and.the.Last.Dragon.2021 Download Link In Bottom.

Torrent And Magnet Links Below

Code:

Video

ID : 1

Format : HEVC

Format/Info : High Efficiency Video Coding

Format profile : Main [email protected]@High

HDR format : SMPTE ST 2086, HDR10 compatible

Codec ID : V_MPEGH/ISO/HEVC

Duration : 1 h 47 min

Bit rate : 11.1 Mb/s

Width : 3 840 pixels

Height : 1 608 pixels

Display aspect ratio : 2.40:1

Frame rate mode : Constant

Frame rate : 23.976 (24000/1001) FPS

Color space : YUV

Chroma subsampling : 4:2:0 (Type 2)

Bit depth : 10 bits

Bits/(Pixel*Frame) : 0.075

Stream size : 8.31 GiB (43%)

Writing library : x265 3.0_Au+10-74a8672ea4f7:[Windows][GCC 8.2.1][64 bit] 10bit

Encoding settings : cpuid=1111039 / frame-threads=6 / numa-pools=40 / wpp / no-pmode / no-pme / no-psnr / no-ssim / log-level=2 / input-csp=1 / input-res=3840×1608 / interlace=0 / total-frames=0 / level-idc=51 / high-tier=1 / uhd-bd=0 / ref=3 / no-allow-non-conformance / repeat-headers / annexb / aud / hrd / info / hash=0 / no-temporal-layers / no-open-gop / min-keyint=1 / keyint=24 / gop-lookahead=0 / bframes=6 / b-adapt=2 / b-pyramid / bframe-bias=0 / rc-lookahead=25 / lookahead-slices=4 / scenecut=40 / radl=0 / no-splice / no-intra-refresh / ctu=64 / min-cu-size=8 / no-rect / no-amp / max-tu-size=32 / tu-inter-depth=1 / tu-intra-depth=1 / limit-tu=0 / rdoq-level=0 / dynamic-rd=0.00 / no-ssim-rd / signhide / no-tskip / nr-intra=0 / nr-inter=0 / no-constrained-intra / strong-intra-smoothing / max-merge=2 / limit-refs=3 / no-limit-modes / me=1 / subme=2 / merange=57 / temporal-mvp / weightp / no-weightb / no-analyze-src-pics / deblock=1:1 / no-sao / no-sao-non-deblock / rd=3 / no-early-skip / rskip / no-fast-intra / no-tskip-fast / no-cu-lossless / no-b-intra / no-splitrd-skip / rdpenalty=0 / psy-rd=0.40 / psy-rdoq=0.00 / no-rd-refine / no-lossless / cbqpoffs=0 / crqpoffs=0 / rc=crf / crf=13.0 / qcomp=0.60 / qpstep=4 / stats-write=0 / stats-read=0 / vbv-maxrate=160000 / vbv-bufsize=160000 / vbv-init=0.9 / crf-max=0.0 / crf-min=0.0 / ipratio=1.40 / pbratio=1.30 / aq-mode=1 / aq-strength=0.40 / cutree / zone-count=0 / no-strict-cbr / qg-size=32 / no-rc-grain / qpmax=69 / qpmin=0 / no-const-vbv / sar=1 / overscan=0 / videoformat=5 / range=0 / colorprim=9 / transfer=16 / colormatrix=9 / chromaloc=1 / chromaloc-top=2 / chromaloc-bottom=2 / display-window=0 / master-display=G(13250,34500)B(7500,3000)R(34000,16000)WP(15635,16450)L(10000000,50) / max-cll=0,0 / min-luma=0 / max-luma=1023 / log2-max-poc-lsb=8 / vui-timing-info / vui-hrd-info / slices=1 / opt-qp-pps / opt-ref-list-length-pps / no-multi-pass-opt-rps / scenecut-bias=0.05 / no-opt-cu-delta-qp / no-aq-motion / hdr / hdr-opt / no-dhdr10-opt / no-idr-recovery-sei / analysis-reuse-level=5 / scale-factor=0 / refine-intra=0 / refine-inter=0 / refine-mv=0 / refine-ctu-distortion=0 / no-limit-sao / ctu-info=0 / no-lowpass-dct / refine-analysis-type=-1480204613 / copy-pic=1 / max-ausize-factor=1.0 / no-dynamic-refine / no-single-sei / no-hevc-aq / no-svt / qp-adaptation-range=1.00

Default : Yes

Forced : No

Color range : Limited

Color primaries : BT.2020

Transfer characteristics : PQ

Matrix coefficients : BT.2020 non-constant

Mastering display color primaries : Display P3

Mastering display luminance : min: 0.0050 cd/m2, max: 1000 cd/m2

Audio #1

ID : 2

Format : MLP FBA 16-ch

Format/Info : Meridian Lossless Packing FBA with 16-channel presentation

Commercial name : Dolby TrueHD with Dolby Atmos

Codec ID : A_TRUEHD

Duration : 1 h 47 min

Bit rate mode : Variable

Bit rate : 8 470 kb/s

Maximum bit rate : 11.2 Mb/s

Channel(s) : 8 channels

Channel layout : L R C LFE Ls Rs Lb Rb

Sampling rate : 48.0 kHz

Frame rate : 1 200.000 FPS (40 SPF)

Compression mode : Lossless

Stream size : 6.36 GiB (33%)

Title : TrueHD Atmos 7.1

Language : English

Default : Yes

Forced : No

Number of dynamic objects : 13

Bed channel count : 1 channel

Bed channel configuration : LFE

Audio #2

ID : 3

Format : DTS XLL

Format/Info : Digital Theater Systems

Commercial name : DTS-HD Master Audio

Codec ID : A_DTS

Duration : 1 h 47 min

Bit rate mode : Variable

Bit rate : 5 285 kb/s

Channel(s) : 8 channels

Channel layout : C L R LFE Lb Rb Lss Rss

Sampling rate : 48.0 kHz

Frame rate : 93.750 FPS (512 SPF)

Bit depth : 24 bits

Compression mode : Lossless

Stream size : 3.97 GiB (21%)

Title : DTS-HD MA 7.1

Language : English

Default : No

Forced : No

Audio #3

ID : 4

Format : AC-3

Format/Info : Audio Coding 3

Commercial name : Dolby Digital

Codec ID : A_AC3

Duration : 1 h 47 min

Bit rate mode : Constant

Bit rate : 640 kb/s

Channel(s) : 6 channels

Channel layout : L R C LFE Ls Rs

Sampling rate : 48.0 kHz

Frame rate : 31.250 FPS (1536 SPF)

Compression mode : Lossy

Stream size : 492 MiB (3%)

Title : DD 5.1

Language : English

Service kind : Complete Main

Default : No

Forced : No

Text #1

ID : 5

Format : UTF-8

Codec ID : S_TEXT/UTF8

Codec ID/Info : UTF-8 Plain Text

Duration : 1 h 37 min

Bit rate : 51 b/s

Count of elements : 1360

Stream size : 37.1 KiB (0%)

Title : English-SRT

Language : English

Default : Yes

Forced : No

Text #2

ID : 6

Format : PGS

Muxing mode : zlib

Codec ID : S_HDMV/PGS

Codec ID/Info : Picture based subtitle format used on BDs/HD-DVDs

Duration : 1 h 46 min

Bit rate : 44.3 kb/s

Count of elements : 3839

Stream size : 33.7 MiB (0%)

Title : English-PGS

Language : English

Default : No

Forced : No

Text #3

ID : 7

Format : PGS

Muxing mode : zlib

Codec ID : S_HDMV/PGS

Codec ID/Info : Picture based subtitle format used on BDs/HD-DVDs

Duration : 1 h 45 min

Bit rate : 26.7 kb/s

Count of elements : 2315

Stream size : 20.2 MiB (0%)

Title : French-PGS

Language : French

Default : No

Forced : No

Text #4

ID : 8

Format : PGS

Muxing mode : zlib

Codec ID : S_HDMV/PGS

Codec ID/Info : Picture based subtitle format used on BDs/HD-DVDs

Duration : 1 h 45 min

Bit rate : 22.6 kb/s

Count of elements : 2208

Stream size : 17.1 MiB (0%)

Title : Japanese-PGS

Language : Japanese

Default : No

Forced : No

Text #5

ID : 9

Format : PGS

Muxing mode : zlib

Codec ID : S_HDMV/PGS

Codec ID/Info : Picture based subtitle format used on BDs/HD-DVDs

Duration : 1 h 45 min

Bit rate : 28.5 kb/s

Count of elements : 2322

Stream size : 21.6 MiB (0%)

Title : Spanish-PGS

Language : Spanish

Default : No

Forced : No

Menu

00:00:00.000 : Chapter 1

00:08:08.697 : Chapter 2

00:11:00.159 : Chapter 3

00:15:16.415 : Chapter 4

00:20:15.339 : Chapter 5

00:28:28.749 : Chapter 6

00:35:56.905 : Chapter 7

00:37:43.261 : Chapter 8

00:41:12.595 : Chapter 9

00:43:19.388 : Chapter 10

00:48:56.392 : Chapter 11

00:51:31.505 : Chapter 12

00:53:13.732 : Chapter 13

00:55:21.068 : Chapter 14

00:59:08.044 : Chapter 15

01:01:57.380 : Chapter 16

01:04:34.579 : Chapter 17

01:06:47.295 : Chapter 18

01:11:21.819 : Chapter 19

01:15:51.213 : Chapter 20

01:18:41.008 : Chapter 21

01:28:26.217 : Chapter 22

01:35:08.286 : Chapter 23

Raya.and.the.Last.Dragon.2021Download Torrent Magnet

#RayaandtheLastDragon2021