Raya and The Last Dragon (202 Full Torrent Magnet Download

Download Torrent Raya and The Last Dragon (202 Movie Full in HD Result. Movie Raya and The Last Dragon (202 Torrent Download full. Movie Raya and The Last Dragon (202 torrent Magnet Download Full. Raya and The Last Dragon (202 Full Movie Torrent Download And Magnet Download For your PC And Mobiles. Latest Movie Raya and The Last Dragon (202 Download Link In Bottom.

Torrent And Magnet Links Below

www.imdb.com/title/tt5109280/

In a realm known as Kumandra, a re-imagined Earth inhabited by an ancient civilization, a warrior named Raya is determined to find the last dragon.

Source: Tommy (DSNP)

Format : MPEG-4

Format profile : Base Media / Version 2

Codec ID : mp42 (isom/iso2/avc1/mp41)

File size : 1.64 GiB

Duration : 1 h 47 min

Overall bit rate mode : Variable

Overall bit rate : 2 189 kb/s

Writing application : HandBrake 1.3.3 2020061300

Video

ID : 1

Format : AVC

Format/Info : Advanced Video Codec

Format profile : [email protected]
Format settings : CABAC / 1 Ref Frames

Format settings, CABAC : Yes

Format settings, Reference : 1 frame

Format settings, GOP : N=1

Codec ID : avc1

Codec ID/Info : Advanced Video Coding

Duration : 1 h 47 min

Bit rate : 1 698 kb/s

Width : 1 920 pixels

Height : 800 pixels

Display aspect ratio : 2.40:1

Frame rate mode : Variable

Frame rate : 23.976 (24000/1001) FPS

Minimum frame rate : 23.974 FPS

Maximum frame rate : 23.981 FPS

Color space : YUV

Chroma subsampling : 4:2:0

Bit depth : 8 bits

Scan type : Progressive

Bits/(Pixel*Frame) : 0.046

Stream size : 1.27 GiB (78%)

Writing library : x264 core 157 r2935 545de2f

Color primaries : BT.709

Transfer characteristics : BT.709

Matrix coefficients : BT.709

Audio #1

ID : 2

Format : AC-3

Format/Info : Audio Coding 3

Commercial name : Dolby Digital

Codec ID : ac-3

Duration : 1 h 47 min

Bit rate mode : Constant

Bit rate : 320 kb/s

Channel(s) : 6 channels

Channel layout : L R C LFE Ls Rs

Sampling rate : 48.0 kHz

Frame rate : 31.250 FPS (1536 SPF)

Compression mode : Lossy

Stream size : 246 MiB (15%)

Title : English

Language : English

Service kind : Complete Main

Default : Yes

Audio #2

ID : 3

Format : AAC LC

Format/Info : Advanced Audio Codec Low Complexity

Codec ID : mp4a-40-2

Duration : 1 h 47 min

Bit rate mode : Constant

Bit rate : 161 kb/s

Channel(s) : 2 channels

Channel layout : L R

Sampling rate : 48.0 kHz

Frame rate : 46.875 FPS (1024 SPF)

Compression mode : Lossy

Stream size : 124 MiB (7%)

Title : English

Language : English

Text
Language : English

Default : Yes

Forced : No

Language : German

Language : German

Language : Danish

Language : Spanish

Language : Spanish

Language : Spanish

Language : French

Language : French

Language : French

Language : French

Language : Italian

Language : Dutch

Language : Norwegian

Language : Portuguese

Language : Portuguese

Language : Portuguese

Language : Finnish

Language : Swedish

Language : Icelandic

Default : No

Forced : No

Raya and The Last Dragon (202Download Torrent Magnet

#Raya #Dragon