Raya and The Last Dragon (202 Full Torrent Magnet Download

Download Torrent Raya and The Last Dragon (202 Movie Full in HD Result. Movie Raya and The Last Dragon (202 Torrent Download full. Movie Raya and The Last Dragon (202 torrent Magnet Download Full. Raya and The Last Dragon (202 Full Movie Torrent Download And Magnet Download For your PC And Mobiles. Latest Movie Raya and The Last Dragon (202 Download Link In Bottom.

Torrent And Magnet Links Below

www.imdb.com/title/tt5109280/

In a realm known as Kumandra, a re-imagined Earth inhabited by an ancient civilization, a warrior named Raya is determined to find the last dragon.

Source: NoGrp (DSNP)

Format : Matroska

Format version : Version 4

File size : 2.08 GiB

Duration : 1 h 47 min

Overall bit rate : 2 776 kb/s

Writing application : HandBrake 1.3.3 2020061300

Writing library : Lavf58.29.100

Video

ID : 1

Format : HEVC

Format/Info : High Efficiency Video Coding

Format profile : Main [email protected]@High

Codec ID : V_MPEGH/ISO/HEVC

Duration : 1 h 47 min

Bit rate : 2 400 kb/s

Width : 3 840 pixels

Height : 1 600 pixels

Display aspect ratio : 2.40:1

Frame rate mode : Constant

Frame rate : 23.976 (24000/1001) FPS

Color space : YUV

Chroma subsampling : 4:2:0

Bit depth : 10 bits

Bits/(Pixel*Frame) : 0.016

Stream size : 1.80 GiB (86%)

Writing library : x265 3.2.1+1-b5c86a64bbbe:[Windows][GCC 9.2.0][64 bit] 10bit

Color range : Full

Color primaries : BT.2020

Transfer characteristics : PQ

Matrix coefficients : BT.2020 non-constant

Audio

ID : 2

Format : AC-3

Format/Info : Audio Coding 3

Commercial name : Dolby Digital

Codec ID : A_AC3

Duration : 1 h 47 min

Bit rate mode : Constant

Bit rate : 320 kb/s

Channel(s) : 6 channels

Channel layout : L R C LFE Ls Rs

Sampling rate : 48.0 kHz

Frame rate : 31.250 FPS (1536 SPF)

Compression mode : Lossy

Delay relative to video : -5 ms

Stream size : 246 MiB (12%)

Title : English

Language : English

Text
Language : English

Language : German

Language : German

Language : Danish

Language : Spanish

Language : Spanish

Language : Spanish

Language : French

Language : French

Language : French

Language : French

Language : Italian

Language : Dutch

Language : Norwegian

Language : Portuguese

Language : Portuguese

Language : Portuguese

Language : Finnish

Language : Swedish

Language : Icelandic

Default : No

Forced : No

Raya and The Last Dragon (202Download Torrent Magnet

#Raya #Dragon