Rang He Premache Rangeele 201 Full Torrent Magnet Download

Download Torrent Rang He Premache Rangeele 201 Movie Full in HD Result. Movie Rang He Premache Rangeele 201 Torrent Download full. Movie Rang He Premache Rangeele 201 torrent Magnet Download Full. Rang He Premache Rangeele 201 Full Movie Torrent Download And Magnet Download For your PC And Mobiles. Latest Movie Rang He Premache Rangeele 201 Download Link In Bottom.

Torrent And Magnet Links Below











General

Complete name : Rang He Premache Rangeele 2017 Marathi 1080p Web-DL x264 AAC [TMB].mkv

Format : Matroska

Format version : Version 4

File size : 2.74 GiB

Duration : 2 h 5 min

Overall bit rate : 3 130 kb/s

Video

Format : AVC

Format/Info : Advanced Video Codec

Format profile : [email protected]
Format settings : CABAC / 4 Ref Frames

Format settings, CABAC : Yes

Format settings, Reference : 4 frames

Codec ID : V_MPEG4/ISO/AVC

Duration : 2 h 5 min

Bit rate : 3 000 kb/s

Width : 1 920 pixels

Height : 1 080 pixels

Display aspect ratio : 16:9

Frame rate mode : Constant

Frame rate : 25.000 FPS

Color space : YUV

Chroma subsampling : 4:2:0

Bit depth : 8 bits

Scan type : Progressive

Bits/(Pixel*Frame) : 0.058

Stream size : 2.62 GiB (96%)

Audio

Format : AAC LC

Format/Info : Advanced Audio Codec Low Complexity

Codec ID : A_AAC-2

Duration : 2 h 5 min

Bit rate : 128 kb/s

Channel(s) : 2 channels

Channel layout : L R

Sampling rate : 48.0 kHz

Frame rate : 46.875 FPS (1024 SPF)

Compression mode : Lossy

Delay relative to video : -80 ms

Stream size : 115 MiB (4%)

Uploaded & Shared by TMB

Seeding 24×7… Extreme Seeding…

Enjoy!

Rang He Premache Rangeele 201Download Torrent Magnet

#Rang #Premache #Rangeele