Ramprasad Ki Tehrvi (2021) Hi Full Torrent Magnet Download

Download Torrent Ramprasad Ki Tehrvi (2021) Hi Movie Full in HD Result. Movie Ramprasad Ki Tehrvi (2021) Hi Torrent Download full. Movie Ramprasad Ki Tehrvi (2021) Hi torrent Magnet Download Full. Ramprasad Ki Tehrvi (2021) Hi Full Movie Torrent Download And Magnet Download For your PC And Mobiles. Latest Movie Ramprasad Ki Tehrvi (2021) Hi Download Link In Bottom.

Torrent And Magnet Links Below

General

Unique ID                                : 13145368105635884303890538602700530806 (0x9E3B4AFBB7EEC7D44ACB1AB7398E476)

Complete name                            :Ramprasad Ki Tehrvi (2021) Hindi 720p JC WEBRip ESub x264-Shadow.BonsaiHD.mkv

Format                                   : Matroska

Format version                           : Version 4 / Version 2

File size                                : 974 MiB

Duration                                 : 1h 55mn

Overall bit rate mode                    : Variable

Overall bit rate                         : 1 179 Kbps

Movie name                               : Ramprasad Ki Tehrvi 2021  

Encoded date                             : UTC 2021-04-24 07:25:15

Writing application                      : mkvmerge v43.0.0 (‘The Quartermaster’) 64-bit

Writing library                          : libebml v1.3.10 + libmatroska v1.5.2

Video

ID                                       : 1

Format                                   : AVC

Format/Info                              : Advanced Video Codec

Format profile                           : [email protected]
Format settings, CABAC                   : Yes

Format settings, ReFrames                : 7 frames

Codec ID                                 : V_MPEG4/ISO/AVC

Duration                                 : 1h 55mn

Bit rate mode                            : Variable

Bit rate                                 : 1 050 Kbps

Maximum bit rate                         : 62.5 Mbps

Width                                    : 1 280 pixels

Height                                   : 544 pixels

Display aspect ratio                     : 2.35:1

Frame rate mode                          : Constant

Frame rate                               : 24.000 fps

Color space                              : YUV

Chroma subsampling                       : 4:2:0

Bit depth                                : 8 bits

Scan type                                : Progressive

Bits/(Pixel*Frame)                       : 0.063

Stream size                              : 867 MiB (89%)

Writing library                          : x264 core 157 r2935 545de2f

Encoding settings                        : cabac=1 / ref=8 / deblock=1:-1:-1 / analyse=0x3:0x113 / me=hex / subme=7 / psy=1 / psy_rd=1.00:0.15 / mixed_ref=1 / me_range=16 / chroma_me=1 / trellis=1 / 8x8dct=1 / cqm=0 / deadzone=21,11 / fast_pskip=1 / chroma_qp_offset=-3 / threads=12 / lookahead_threads=2 / sliced_threads=0 / nr=0 / decimate=1 / interlaced=0 / bluray_compat=0 / constrained_intra=0 / bframes=5 / b_pyramid=1 / b_adapt=1 / b_bias=0 / direct=1 / weightb=1 / open_gop=0 / weightp=1 / keyint=240 / keyint_min=24 / scenecut=40 / intra_refresh=0 / rc_lookahead=40 / rc=2pass / mbtree=1 / bitrate=1050 / ratetol=1.0 / qcomp=0.60 / qpmin=0 / qpmax=69 / qpstep=4 / cplxblur=20.0 / qblur=0.5 / vbv_maxrate=62500 / vbv_bufsize=78125 / nal_hrd=vbr / filler=0 / ip_ratio=1.40 / aq=1:1.00

Default                                  : Yes

Forced                                   : No

Audio

ID                                       : 2

Format                                   : AAC

Format/Info                              : Advanced Audio Codec

Format profile                           : LC

Codec ID                                 : A_AAC

Duration                                 : 1h 55mn

Bit rate                                 : 128 Kbps

Channel(s)                               : 2 channels

Channel positions                        : Front: L R

Sampling rate                            : 48.0 KHz

Frame rate                               : 46.875 fps (1024 spf)

Compression mode                         : Lossy

Delay relative to video                  : 9ms

Stream size                              : 106 MiB (11%)

Language                                 : Hindi

Default                                  : Yes

Forced                                   : No

Text

ID                                       : 3

Format                                   : UTF-8

Codec ID                                 : S_TEXT/UTF8

Codec ID/Info                            : UTF-8 Plain Text

Duration                                 : 1h 44mn

Bit rate                                 : 75 bps

Count of elements                        : 1652

Stream size                              : 57.7 KiB (0%)

Default                                  : Yes

Forced                                   : No




Ramprasad Ki Tehrvi (2021) HiDownload Torrent Magnet

#Ramprasad #Tehrvi