R.I.A.2021.1080p.AMZN.WEBRip. Full Torrent Magnet Download

Download Torrent R.I.A.2021.1080p.AMZN.WEBRip. Movie Full in HD Result. Movie R.I.A.2021.1080p.AMZN.WEBRip. Torrent Download full. Movie R.I.A.2021.1080p.AMZN.WEBRip. torrent Magnet Download Full. R.I.A.2021.1080p.AMZN.WEBRip. Full Movie Torrent Download And Magnet Download For your PC And Mobiles. Latest Movie R.I.A.2021.1080p.AMZN.WEBRip. Download Link In Bottom.

Torrent And Magnet Links Below

https://www.imdb.com/title/tt9126944/

Code:

Video

ID : 1

Format : AVC

Format/Info : Advanced Video Codec

Format profile : [email protected]
Format settings : CABAC / 4 Ref Frames

Format settings, CABAC : Yes

Format settings, Reference frames : 4 frames

Codec ID : V_MPEG4/ISO/AVC

Duration : 1 h 34 min

Bit rate mode : Constant

Bit rate : 7 055 kb/s

Nominal bit rate : 10 000 kb/s

Width : 1 920 pixels

Height : 816 pixels

Display aspect ratio : 2.35:1

Frame rate mode : Constant

Frame rate : 23.976 (24000/1001) FPS

Color space : YUV

Chroma subsampling : 4:2:0

Bit depth : 8 bits

Scan type : Progressive

Bits/(Pixel*Frame) : 0.188

Stream size : 4.66 GiB (92%)

Default : Yes

Forced : No

Color range : Limited

Color primaries : BT.709

Transfer characteristics : BT.709

Matrix coefficients : BT.709

Audio

ID : 2

Format : E-AC-3

Format/Info : Enhanced AC-3

Commercial name : Dolby Digital Plus

Codec ID : A_EAC3

Duration : 1 h 34 min

Bit rate mode : Constant

Bit rate : 640 kb/s

Channel(s) : 6 channels

Channel layout : L R C LFE Ls Rs

Sampling rate : 48.0 kHz

Frame rate : 31.250 FPS (1536 SPF)

Compression mode : Lossy

Stream size : 433 MiB (8%)

Language : English

Service kind : Complete Main

Default : Yes

Forced : No

Text #1

ID : 3

Format : UTF-8

Codec ID : S_TEXT/UTF8

Codec ID/Info : UTF-8 Plain Text

Duration : 1 h 30 min

Bit rate : 64 b/s

Count of elements : 1511

Stream size : 43.1 KiB (0%)

Language : English

Default : Yes

Forced : No

Text #2

ID : 4

Format : UTF-8

Codec ID : S_TEXT/UTF8

Codec ID/Info : UTF-8 Plain Text

Duration : 1 h 30 min

Bit rate : 72 b/s

Count of elements : 1715

Stream size : 48.3 KiB (0%)

Title : SDH

Language : English

Default : No

Forced : No

R.I.A.2021.1080p.AMZN.WEBRip.Download Torrent Magnet

#RIA20211080pAMZNWEBRip