Punisher.War.Zone.2008.REMAST Full Torrent Magnet Download

Download Torrent Punisher.War.Zone.2008.REMAST Movie Full in HD Result. Movie Punisher.War.Zone.2008.REMAST Torrent Download full. Movie Punisher.War.Zone.2008.REMAST torrent Magnet Download Full. Punisher.War.Zone.2008.REMAST Full Movie Torrent Download And Magnet Download For your PC And Mobiles. Latest Movie Punisher.War.Zone.2008.REMAST Download Link In Bottom.

Torrent And Magnet Links Below

Punisher.War.Zone.2008.REMASTERED.BRRip.XviD.B4ND1T69

Director: Lexi Alexander

Writers: Nick Santora, Art Marcum

Stars: Ray Stevenson, Dominic West, Julie Benz

Plot/Story:

Frank Castle, known as the Punisher, ruthlessly demolishes organized crime, but it starts an even bigger war.

General

Complete name : Punisher.War.Zone.2008.REMASTERED.BRRip.XviD.B4ND1T69.avi

Format : AVI

Format/Info : Audio Video Interleave

File size : 1.15 GiB

Duration : 1 h 42 min

Overall bit rate : 1 597 kb/s

Subtitles : Yes…Included(HI)

Video

ID : 0

Format : MPEG-4 Visual

Format profile : Advanced [email protected]
Format settings, BVOP : 2

Format settings, QPel : No

Format settings, GMC : No warppoints

Format settings, Matrix : Default (H.263)

Codec ID : XVID

Codec ID/Hint : XviD

Duration : 1 h 42 min

Bit rate : 1 456 kb/s

Width : 720 pixels

Height : 304 pixels

Display aspect ratio : 2.35:1

Frame rate : 23.976 (24000/1001) FPS

Color space : YUV

Chroma subsampling : 4:2:0

Bit depth : 8 bits

Scan type : Progressive

Compression mode : Lossy

Bits/(Pixel*Frame) : 0.277

Stream size : 1.04 GiB (91%)

Writing library : XviD 64

Audio

ID : 1

Format : MPEG Audio

Format version : Version 1

Format profile : Layer 3

Codec ID : 55

Codec ID/Hint : MP3

Duration : 1 h 42 min

Bit rate mode : Constant

Bit rate : 128 kb/s

Channel(s) : 2 channels

Sampling rate : 48.0 kHz

Compression mode : Lossy

Stream size : 94.0 MiB (8%)

Alignment : Aligned on interleaves

Interleave, duration : 24 ms (0.58 video frame)

Screenshots:









Please Seed For As Long As Possible

Or At Least 1:1 Ratio…Thanks

Enjoy Peeps

Punisher.War.Zone.2008.REMASTDownload Torrent Magnet

#PunisherWarZone2008REMAST