Promising Young Woman (2021) Full Torrent Magnet Download

Download Torrent Promising Young Woman (2021) Movie Full in HD Result. Movie Promising Young Woman (2021) Torrent Download full. Movie Promising Young Woman (2021) torrent Magnet Download Full. Promising Young Woman (2021) Full Movie Torrent Download And Magnet Download For your PC And Mobiles. Latest Movie Promising Young Woman (2021) Download Link In Bottom.

Torrent And Magnet Links Below

www.imdb.com/title/tt9620292/

A young woman, traumatized by a tragic event in her past, seeks out vengeance against those who crossed her path.

Source: DDR (web)

Format : Matroska

Format version : Version 4

File size : 1.66 GiB

Duration : 1 h 53 min

Overall bit rate : 2 086 kb/s

Writing application : HandBrake 1.3.3 2020061300

Writing library : Lavf58.29.100

Video

ID : 1

Format : HEVC

Format/Info : High Efficiency Video Coding

Format profile : Main [email protected]@High

Codec ID : V_MPEGH/ISO/HEVC

Duration : 1 h 53 min

Bit rate : 1 724 kb/s

Width : 3 840 pixels

Height : 1 600 pixels

Display aspect ratio : 2.40:1

Frame rate mode : Constant

Frame rate : 23.976 (24000/1001) FPS

Color space : YUV

Chroma subsampling : 4:2:0

Bit depth : 10 bits

Bits/(Pixel*Frame) : 0.012

Stream size : 1.37 GiB (83%)

Writing library : x265 3.2.1+1-b5c86a64bbbe:[Windows][GCC 9.2.0][64 bit] 10bit

Color range : Full

Color primaries : BT.2020

Transfer characteristics : PQ

Matrix coefficients : BT.2020 non-constant

Audio

ID : 2

Format : AC-3

Format/Info : Audio Coding 3

Commercial name : Dolby Digital

Codec ID : A_AC3

Duration : 1 h 53 min

Bit rate mode : Constant

Bit rate : 320 kb/s

Channel(s) : 6 channels

Channel layout : L R C LFE Ls Rs

Sampling rate : 48.0 kHz

Frame rate : 31.250 FPS (1536 SPF)

Compression mode : Lossy

Delay relative to video : -5 ms

Stream size : 261 MiB (15%)

Title : Surround

Language : English

Promising Young Woman (2021) Download Torrent Magnet

#Promising #Young #Woman