Prometheus (2012) 1080p h264 Full Torrent Magnet Download

Download Torrent Prometheus (2012) 1080p h264 Movie Full in HD Result. Movie Prometheus (2012) 1080p h264 Torrent Download full. Movie Prometheus (2012) 1080p h264 torrent Magnet Download Full. Prometheus (2012) 1080p h264 Full Movie Torrent Download And Magnet Download For your PC And Mobiles. Latest Movie Prometheus (2012) 1080p h264 Download Link In Bottom.

Torrent And Magnet Links Below

Prometheus (2012) 1080p h264 Ac3 5.1 Ita Eng Sub ita Eng-MIRCrew


NO FOUND ONLY ORIGINAL RELEASE

My release is always in double track audio italian and Original audio

for select it use VLC or dvd player home

not use wmp

Prometheus (2012)

Quality MIRCrew on HD 1080p da 2,3 gb

 

Titolo originale Prometheus

Paese di produzione Regno Unito, Stati Uniti d’America

Anno 2012

Durata 124 min

Rapporto 2,40:1 (cinematic view)

Genere fantascienza, orrore

Regia Ridley Scott

Sceneggiatura Jon Spaihts, Damon Lindelof

Produttore Ridley Scott, Tony Scott, David Giler, Walter Hill

   Noomi Rapace: Elizabeth Shaw

   Michael Fassbender: David 8

   Charlize Theron: Meredith Vickers

   Idris Elba: Capitano Janek

   Guy Pearce: Peter Weyland

   Logan Marshall-Green: Charlie Holloway

   Sean Harris: Fifield

   Rafe Spall: Millburn

   Emun Elliott: Chance

   Benedict Wong: Ravel

   Patrick Wilson: padre di Elizabeth Shaw

   Kate Dickie: Ford

   Daniel James: ingegnere sacrificale

   John Lebar: ingegnere “fantasma”

   Ian Whyte: ingegnere sopravvissuto

Mentre un disco volante parte da un pianeta, una creatura aliena umanoide ingerisce un misterioso liquido nero semovente e a causa di questo inizia a disgregarsi, cadendo in una cascata e innescando una reazione biogenetica con il proprio DNA.

Following a faint trail of clues, the accomplished archaeologist, Doctor Elizabeth Shaw, and her partner, Charlie Holloway, along with a seventeen-man crew, embark on an ambitious, deep-space scientific expedition. Aboard the revolutionary space-exploration starship, USCSS Prometheus, the team sets foot on the rocky terrain of the desolate exomoon, LV-223, in 2093, to investigate the existence of the superior extraterrestrial species known as the “Engineers”.

 

General

Complete name                            : Prometheus (2012) 1080p h264 Ac3 5.1 Ita Eng Sub ita Eng-MIRCrewPrometheus (2012) 1080p h264 Ac3 5.1 Ita Eng Sub ita Eng-MIRCrew.mkv

Format                                   : Matroska

Format version                           : Version 2

File size                                : 3.00 GiB

Duration                                 : 2h 3mn

Overall bit rate                         : 3 473 Kbps

Movie name                               : MIRCrew

Encoded date                             : UTC 2021-03-09 18:08:17

Writing application                      : mkvmerge v5.8.0 (‘No Sleep / Pillow’) built on Sep  2 2012 15:37:04

Writing library                          : Lavf54.63.100

COMMENT                                  : MIRCrew

Video

ID                                       : 1

Format                                   : AVC

Format/Info                              : Advanced Video Codec

Format profile                           : [email protected]
Format settings, CABAC                   : Yes

Format settings, ReFrames                : 2 frames

Codec ID                                 : V_MPEG4/ISO/AVC

Duration                                 : 2h 3mn

Bit rate                                 : 2 600 Kbps

Width                                    : 1 920 pixels

Height                                   : 800 pixels

Display aspect ratio                     : 2.40:1

Frame rate mode                          : Variable

Frame rate                               : 23.976 fps

Color space                              : YUV

Chroma subsampling                       : 4:2:0

Bit depth                                : 8 bits

Scan type                                : Progressive

Bits/(Pixel*Frame)                       : 0.071

Stream size                              : 2.17 GiB (72%)

Title                                    : MIRCrew

Writing library                          : x264 core 130 r2273

Encoding settings                        : cabac=1 / ref=2 / deblock=1:-1:-1 / analyse=0x1:0x131 / me=hex / subme=7 / psy=1 / psy_rd=1.00:0.10 / mixed_ref=0 / me_range=16 / chroma_me=1 / trellis=1 / 8x8dct=0 / cqm=0 / deadzone=21,11 / fast_pskip=1 / chroma_qp_offset=-3 / threads=9 / lookahead_threads=1 / sliced_threads=0 / nr=0 / decimate=1 / interlaced=0 / bluray_compat=0 / constrained_intra=0 / bframes=3 / b_pyramid=0 / b_adapt=1 / b_bias=0 / direct=3 / weightb=1 / open_gop=0 / weightp=2 / keyint=230 / keyint_min=23 / scenecut=40 / intra_refresh=0 / rc_lookahead=40 / rc=abr / mbtree=1 / bitrate=2600 / ratetol=1.0 / qcomp=0.60 / qpmin=10 / qpmax=69 / qpstep=4 / vbv_maxrate=24000 / vbv_bufsize=24000 / nal_hrd=none / ip_ratio=1.40 / aq=1:1.00

Language                                 : Italian

Default                                  : Yes

Forced                                   : No

Audio #1

ID                                       : 2

Format                                   : AC-3

Format/Info                              : Audio Coding 3

Mode extension                           : CM (complete main)

Codec ID                                 : A_AC3

Duration                                 : 2h 3mn

Bit rate mode                            : Constant

Bit rate                                 : 448 Kbps

Channel(s)                               : 6 channels

Channel positions                        : Front: L C R, Side: L R, LFE

Sampling rate                            : 48.0 KHz

Bit depth                                : 16 bits

Compression mode                         : Lossy

Delay relative to video                  : -42ms

Stream size                              : 397 MiB (13%)

Title                                    : Ita Ac3 5.1

Language                                 : English

Default                                  : Yes

Forced                                   : No

Audio #2

ID                                       : 3

Format                                   : AC-3

Format/Info                              : Audio Coding 3

Mode extension                           : CM (complete main)

Codec ID                                 : A_AC3

Duration                                 : 2h 3mn

Bit rate mode                            : Constant

Bit rate                                 : 448 Kbps

Channel(s)                               : 6 channels

Channel positions                        : Front: L C R, Side: L R, LFE

Sampling rate                            : 48.0 KHz

Bit depth                                : 16 bits

Compression mode                         : Lossy

Delay relative to video                  : -5ms

Stream size                              : 397 MiB (13%)

Title                                    : Eng Ac3 5.1

Language                                 : English

Default                                  : No

Forced                                   : No

Menu

00:00:00.000                             : :00:00:00.000

00:05:13.146                             : :00:05:13.146

00:07:44.881                             : :00:07:44.881

00:11:31.524                             : :00:11:31.524

00:15:09.784                             : :00:15:09.784

00:20:04.912                             : :00:20:04.912

00:22:32.810                             : :00:22:32.810

00:27:43.120                             : :00:27:43.120

00:31:57.833                             : :00:31:57.833

00:34:10.840                             : :00:34:10.840

00:37:53.229                             : :00:37:53.229

00:40:45.360                             : :00:40:45.360

00:45:49.330                             : :00:45:49.330

00:48:47.925                             : :00:48:47.925

00:50:23.062                             : :00:50:23.062

00:53:56.400                             : :00:53:56.400

00:56:32.222                             : :00:56:32.222

00:59:31.610                             : :00:59:31.610

01:01:29.185                             : :01:01:29.185

01:04:17.562                             : :01:04:17.562

01:06:01.457                             : :01:06:01.457

01:08:57.884                             : :01:08:57.884

01:11:13.519                             : :01:11:13.519

01:15:10.631                             : :01:15:10.631

01:17:06.038                             : :01:17:06.038

01:25:02.306                             : :01:25:02.306

01:27:09.349                             : :01:27:09.349

01:30:10.363                             : :01:30:10.363

01:32:43.725                             : :01:32:43.725

01:35:23.134                             : :01:35:23.134

01:37:46.861                             : :01:37:46.861

01:40:46.374                             : :01:40:46.374

01:43:46.220                             : :01:43:46.220

01:48:28.794                             : :01:48:28.794

01:52:08.096                             : :01:52:08.096

01:58:06.288                             : :01:58:06.288

Prometheus (2012) 1080p h264 Download Torrent Magnet

#Prometheus #1080p #h264