POV A Cursed Film.2012.DVDRip Full Torrent Magnet Download

Download Torrent POV A Cursed Film.2012.DVDRip Movie Full in HD Result. Movie POV A Cursed Film.2012.DVDRip Torrent Download full. Movie POV A Cursed Film.2012.DVDRip torrent Magnet Download Full. POV A Cursed Film.2012.DVDRip Full Movie Torrent Download And Magnet Download For your PC And Mobiles. Latest Movie POV A Cursed Film.2012.DVDRip Download Link In Bottom.

Torrent And Magnet Links Below

Torrent from rutracker:

Original post and all info located here

P.O.V. – A Cursed Film
IMDb page

Country : Japan

Genre : thriller, horror

Release year : 2012

Duration : 01:32:24

Translation : Amateur-Russian (two-voice voiceover) den904, DeadSno
Subtitles [DDL from SUBDL]:

English
Indonesian
Director: Norio Tsuruta

Starring:

– Haruna Kawaguchi  

– Mirai Sida  

– Yasuyuki Hirano  

– Takashi Kodama  

– Mayu Miura  

Group release :

Description: Mirai is the host of the youth entertainment show “Peeking from Mirai”, to which she invites her friend, Haruna. Watching the videos that viewers send them, friends notice something terrifying on them… On top of that, Haruna recognizes the shooting location – this is the school in which she studied. After receiving permission, the film crew travels to the place of the focus of evil to find out what it all means. They didn’t expect to run into the neighbourhood ghost crowd there.

– Format : AVI  

– Format/Info : Audio Video Interleave  

– File size : 1.38 GiB  

– Duration : 1h 32mn  

– Overall bit rate : 2 141 Kbps  

– Writing application : VirtualDubMod 1.5.10.2 (build 2540/release)  

– Writing library : VirtualDubMod build 2540/release  

Video

– ID : 0  

– Format : MPEG-4 Visual  

– Format profile : Advanced [email protected]  

– Format settings, BVOP : 1  

– Format settings, QPel : No  

– Format settings, GMC : No warppoints  

– Format settings, Matrix : Default (MPEG)  

– Mixing mode : Packed bitstream  

– Codec ID : XVID  

– Codec ID/Hint : XviD  

– Duration : 1h 32mn  

– Bit rate : 1 908 Kbps  

– Width : 704 pixels  

– Height : 384 pixels  

– Display aspect ratio : 16:9  

– Frame rate : 23.976 fps  

– Color space : YUV  

– Chroma subsampling : 4:2:0  

– Bit depth : 8 bits  

– Scan type : Progressive  

– Compression mode : Lossy  

– Bits/(Pixel*Frame) : 0.294  

– Stream size : 1.23 GiB (89%)  

– Writing library : XviD 1.2.0.dev47 (UTC 2006-11-01)  

Audio

– ID : 1  

– Format : MPEG Audio  

– Format version : Version 1  

– Format profile : Layer 3  

– Mode : Joint stereo  

– Codec ID : 55  

– Codec ID/Hint : MP3  

– Duration : 1h 32mn  

– Bit rate mode : Constant  

– Bit rate : 224 Kbps  

– Channel(s) : 2 channels  

– Sampling rate : 48.0 KHz  

– Compression mode : Lossy  

– Stream size : 148 MiB (10%)  

– Alignment : Aligned on interleaves  

– Interleave, duration : 42 ms (1.00 video frame)  

– Interleave, preload duration : 504 ms  

– Русский/Russian, 48 kHz, MPEG layer 3, 2 ch, 224 kbps  

Screenshots:






POV A Cursed Film.2012.DVDRipDownload Torrent Magnet

#POV #Cursed #Film2012DVDRip