Postcard 2014 Marathi 720p We Full Torrent Magnet Download

Download Torrent Postcard 2014 Marathi 720p We Movie Full in HD Result. Movie Postcard 2014 Marathi 720p We Torrent Download full. Movie Postcard 2014 Marathi 720p We torrent Magnet Download Full. Postcard 2014 Marathi 720p We Full Movie Torrent Download And Magnet Download For your PC And Mobiles. Latest Movie Postcard 2014 Marathi 720p We Download Link In Bottom.

Torrent And Magnet Links Below










General

Complete name : Postcard 2014 Marathi 720p WebRip x264 AAC [TMB].mp4

Format : MPEG-4

Format profile : Base Media / Version 2

Codec ID : mp42 (mp42/iso2/avc1/mp41)

File size : 1.37 GiB

Duration : 1 h 58 min

Overall bit rate : 1 651 kb/s

Video

Format : AVC

Format/Info : Advanced Video Codec

Format profile : [email protected]
Format settings : CABAC / 4 Ref Frames

Format settings, CABAC : Yes

Format settings, Reference : 4 frames

Codec ID : avc1

Codec ID/Info : Advanced Video Coding

Duration : 1 h 58 min

Source duration : 1 h 58 min

Bit rate : 1 518 kb/s

Width : 1 280 pixels

Height : 544 pixels

Display aspect ratio : 2.35:1

Original display aspect rat : 2.35:1

Frame rate mode : Variable

Frame rate : 24.000 FPS

Minimum frame rate : 13.705 FPS

Maximum frame rate : 24.000 FPS

Color space : YUV

Chroma subsampling : 4:2:0

Bit depth : 8 bits

Scan type : Progressive

Bits/(Pixel*Frame) : 0.091

Stream size : 1.26 GiB (92%)

Source stream size : 1.26 GiB (92%)

Audio

Format : AAC LC

Format/Info : Advanced Audio Codec Low Complexity

Codec ID : mp4a-40-2

Duration : 1 h 58 min

Bit rate mode : Constant

Bit rate : 128 kb/s

Channel(s) : 2 channels

Channel layout : L R

Sampling rate : 48.0 kHz

Frame rate : 46.875 FPS (1024 SPF)

Compression mode : Lossy

Stream size : 109 MiB (8%)

Source : 1080p [email protected]

Rip & Uploaded & Shared by TMB

Seeding 24×7… Extreme Seeding…

Enjoy!

Postcard 2014 Marathi 720p WeDownload Torrent Magnet

#Postcard #Marathi #720p