Plein soleil (1960) BDRip 108 Full Torrent Magnet Download

Download Torrent Plein soleil (1960) BDRip 108 Movie Full in HD Result. Movie Plein soleil (1960) BDRip 108 Torrent Download full. Movie Plein soleil (1960) BDRip 108 torrent Magnet Download Full. Plein soleil (1960) BDRip 108 Full Movie Torrent Download And Magnet Download For your PC And Mobiles. Latest Movie Plein soleil (1960) BDRip 108 Download Link In Bottom.

Torrent And Magnet Links Below

IMDB

Code:


General

Complete name : Plein.soleil.(1960).BDRip.1080p.AC3.[Borsalino].DE.srt

Format : SubRip

File size : 65.7 KiB

Text

Format : SubRip

Compression mode : Lossless

General

Complete name : Plein.soleil.(1960).BDRip.1080p.AC3.[Borsalino].EL.srt

Format : SubRip

File size : 42.1 KiB

Text

Format : SubRip

Compression mode : Lossless

General

Complete name : Plein.soleil.(1960).BDRip.1080p.AC3.[Borsalino].EN.srt

Format : SubRip

File size : 62.8 KiB

Text

Format : SubRip

Compression mode : Lossless

General

Complete name : Plein.soleil.(1960).BDRip.1080p.AC3.[Borsalino].ES.srt

Format : SubRip

File size : 59.7 KiB

Text

Format : SubRip

Compression mode : Lossless

General

Complete name : Plein.soleil.(1960).BDRip.1080p.AC3.[Borsalino].FR.srt

Format : SubRip

File size : 96.5 KiB

Text

Format : SubRip

Compression mode : Lossless

General

Complete name : Plein.soleil.(1960).BDRip.1080p.AC3.[Borsalino].NL.srt

Format : SubRip

File size : 57.6 KiB

Text

Format : SubRip

Compression mode : Lossless

General

Complete name : Plein.soleil.(1960).BDRip.1080p.AC3.[Borsalino].RO.srt

Format : SubRip

File size : 58.6 KiB

Text

Format : SubRip

Compression mode : Lossless

General

Complete name : Plein.soleil.(1960).BDRip.1080p.AC3.[Borsalino].mkv

Format : Matroska

Format version : Version 4

File size : 7.60 GiB

Duration : 1 h 58 min

Overall bit rate : 9 173 kb/s

Movie name : Plein.soleil.(1960).BDRip.1080p.AC3.[Borsalino]
Writing application : mkvmerge v56.1.0 (‘My Friend’) 64-bit

Writing library : libebml v1.4.2 + libmatroska v1.6.4

Video

ID : 1

Format : AVC

Format/Info : Advanced Video Codec

Format profile : [email protected]
Format settings : CABAC / 4 Ref Frames

Format settings, CABAC : Yes

Format settings, Reference frames : 4 frames

Codec ID : V_MPEG4/ISO/AVC

Duration : 1 h 58 min

Bit rate : 8 980 kb/s

Width : 1 800 pixels

Height : 1 080 pixels

Display aspect ratio : 5:3

Frame rate mode : Constant

Frame rate : 23.976 (24000/1001) FPS

Color space : YUV

Chroma subsampling : 4:2:0

Bit depth : 8 bits

Scan type : Progressive

Bits/(Pixel*Frame) : 0.193

Stream size : 7.44 GiB (98%)

Title : French

Writing library : x264 core 128 r2216M 198a7ea

Encoding settings : cabac=1 / ref=4 / deblock=1:-2:-1 / analyse=0x3:0x133 / me=umh / subme=10 / psy=1 / psy_rd=1.00:0.00 / mixed_ref=1 / me_range=32 / chroma_me=1 / trellis=2 / 8x8dct=1 / cqm=0 / deadzone=21,11 / fast_pskip=0 / chroma_qp_offset=-2 / threads=4 / lookahead_threads=1 / sliced_threads=0 / nr=0 / decimate=0 / interlaced=0 / bluray_compat=0 / constrained_intra=0 / bframes=8 / b_pyramid=2 / b_adapt=2 / b_bias=0 / direct=3 / weightb=1 / open_gop=0 / weightp=2 / keyint=240 / keyint_min=23 / scenecut=40 / intra_refresh=0 / rc=2pass / mbtree=0 / bitrate=8980 / ratetol=1.0 / qcomp=0.60 / qpmin=10 / qpmax=69 / qpstep=4 / cplxblur=20.0 / qblur=0.5 / ip_ratio=1.40 / pb_ratio=1.30 / aq=1:1.00

Language : French

Default : Yes

Forced : No

Audio

ID : 2

Format : AC-3

Format/Info : Audio Coding 3

Commercial name : Dolby Digital

Codec ID : A_AC3

Duration : 1 h 58 min

Bit rate mode : Constant

Bit rate : 192 kb/s

Channel(s) : 1 channel

Channel layout : C

Sampling rate : 48.0 kHz

Frame rate : 31.250 FPS (1536 SPF)

Compression mode : Lossy

Stream size : 163 MiB (2%)

Title : French

Language : French

Service kind : Complete Main

Default : No

Forced : No

Spoken language

Subtitles (srt files)














Plein soleil (1960) BDRip 108Download Torrent Magnet

#Plein #soleil #BDRip