Planet of the Apes Collection Full Torrent Magnet Download

Download Torrent Planet of the Apes Collection Movie Full in HD Result. Movie Planet of the Apes Collection Torrent Download full. Movie Planet of the Apes Collection torrent Magnet Download Full. Planet of the Apes Collection Full Movie Torrent Download And Magnet Download For your PC And Mobiles. Latest Movie Planet of the Apes Collection Download Link In Bottom.

Torrent And Magnet Links Below

Planet of the Apes Collection (2001-2017) 1080p BluRay x264 {Dual Audio} {Hindi-English BD 5.1} ESub By~Hammer~


Planet of the Apes (2001) 1080p BluRay x264 {Dual Audio} {Hindi-Eng BD 5.1} ESub By~Hammer~

General

Format                                   : Matroska

Format version                           : Version 4 / Version 2

File size                                : 5.10 GiB

Duration                                 : 1 h 59 min

Overall bit rate                         : 6 090 kb/s

Movie name                               : Planet of the Apes (2001) 1080p BluRay x264 {Dual Audio} {Hindi-Eng BD 5.1} ESub By~Hammer~

Bit rate                                 : 5 000 kb/s

Width                                    : 1 920 pixels

Height                                   : 816 pixels

Display aspect ratio                     : 2.35:1

Frame rate mode                          : Constant

Frame rate                               : 23.976 (24000/1001) FPS

Title                                    : ~EncodeR~HammeR~

Language                                 : English

Default                                  : Yes

Forced                                   : Yes

Audio #1

Format                                   : AC-3

Format/Info                              : Audio Coding 3

Codec ID                                 : A_AC3

Duration                                 : 1 h 59 min

Bit rate mode                            : Constant

Bit rate                                 : 448 kb/s

Channel(s)                               : 6 channels

Channel positions                        : Front: L C R, Side: L R, LFE

Sampling rate                            : 48.0 kHz

Frame rate                               : 31.250 FPS (1536 SPF)

Bit depth                                : 16 bits

Compression mode                         : Lossy

Stream size                              : 384 MiB (7%)

Title                                    : Hindi Org BD 5.1 448 kbps By~Hammer~

Language                                 : Hindi

Default                                  : Yes

Forced                                   : Yes

Audio #2

Format                                   : AC-3

Format/Info                              : Audio Coding 3

Codec ID                                 : A_AC3

Duration                                 : 1 h 59 min

Bit rate mode                            : Constant

Bit rate                                 : 640 kb/s

Channel(s)                               : 6 channels

Channel positions                        : Front: L C R, Side: L R, LFE

Sampling rate                            : 48.0 kHz

Frame rate                               : 31.250 FPS (1536 SPF)

Bit depth                                : 16 bits

Compression mode                         : Lossy

Stream size                              : 549 MiB (11%)

Title                                    : English BD 5.1 640 kbps By~Hammer~

Language                                 : English

Default                                  : No

Forced                                   : No

Text

Format                                   : PGS

Muxing mode                              : zlib

Codec ID                                 : S_HDMV/PGS

Codec ID/Info                            : Picture based subtitle format used on BDs/HD-DVDs

Duration                                 : 23 min 14 s

Bit rate                                 : 13.0 kb/s

Count of elements                        : 336

Stream size                              : 2.15 MiB (0%)

Title                                    : English PGS

Language                                 : English

Default                                  : Yes

Forced                                   : No







Rise of the Planet of the Apes (2011) 1080p BluRay x264 {Dual Audio} {Hindi-Eng BD 5.1} ESub By~Hammer~

General

Format                                   : Matroska

Format version                           : Version 4 / Version 2

File size                                : 4.47 GiB

Duration                                 : 1 h 44 min

Overall bit rate                         : 6 101 kb/s

Movie name                               : Rise of the Planet of the Apes (2011) 1080p BluRay x264 {Dual Audio} {Hindi-Eng BD 5.1} ESub By~Hammer~

Bit rate                                 : 5 000 kb/s

Width                                    : 1 920 pixels

Height                                   : 816 pixels

Display aspect ratio                     : 2.35:1

Frame rate mode                          : Constant

Frame rate                               : 23.976 (24000/1001) FPS

Title                                    : ~EncodeR~HammeR~

Language                                 : English

Default                                  : Yes

Forced                                   : Yes

Audio #1

Format                                   : AC-3

Format/Info                              : Audio Coding 3

Codec ID                                 : A_AC3

Duration                                 : 1 h 44 min

Bit rate mode                            : Constant

Bit rate                                 : 448 kb/s

Channel(s)                               : 6 channels

Channel positions                        : Front: L C R, Side: L R, LFE

Sampling rate                            : 48.0 kHz

Frame rate                               : 31.250 FPS (1536 SPF)

Bit depth                                : 16 bits

Compression mode                         : Lossy

Stream size                              : 336 MiB (7%)

Title                                    : Hindi Org BD 5.1 448 kbps By~Hammer~

Language                                 : Hindi

Default                                  : Yes

Forced                                   : Yes

Audio #2

Format                                   : AC-3

Format/Info                              : Audio Coding 3

Codec ID                                 : A_AC3

Duration                                 : 1 h 44 min

Bit rate mode                            : Constant

Bit rate                                 : 640 kb/s

Channel(s)                               : 6 channels

Channel positions                        : Front: L C R, Side: L R, LFE

Sampling rate                            : 48.0 kHz

Frame rate                               : 31.250 FPS (1536 SPF)

Bit depth                                : 16 bits

Compression mode                         : Lossy

Stream size                              : 480 MiB (10%)

Title                                    : English BD 5.1 640 kbps By~Hammer~

Language                                 : English

Default                                  : No

Forced                                   : No

Text

Format                                   : PGS

Muxing mode                              : zlib

Codec ID                                 : S_HDMV/PGS

Codec ID/Info                            : Picture based subtitle format used on BDs/HD-DVDs

Duration                                 : 1 h 32 min

Bit rate                                 : 14.0 kb/s

Count of elements                        : 1614

Stream size                              : 9.28 MiB (0%)

Title                                    : English PGS

Language                                 : English

Default                                  : Yes

Forced                                   : No







Dawn of the Planet of the Apes (2014) 1080p BluRay x264 {Dual Audio} {Hindi-Eng BD 5.1} ESub By~Hammer~

General

Format                                   : Matroska

Format version                           : Version 4 / Version 2

File size                                : 5.56 GiB

Duration                                 : 2 h 10 min

Overall bit rate                         : 6 099 kb/s

Movie name                               : Dawn of the Planet of the Apes (2014) 1080p BluRay x264 {Dual Audio} {Hindi-Eng BD 5.1} ESub By~Hammer~

Bit rate                                 : 5 000 kb/s

Width                                    : 1 920 pixels

Height                                   : 1 038 pixels

Display aspect ratio                     : 1.85:1

Frame rate mode                          : Constant

Frame rate                               : 23.976 (24000/1001) FPS

Title                                    : ~EncodeR~HammeR~

Language                                 : English

Default                                  : Yes

Forced                                   : Yes

Audio #1

Format                                   : AC-3

Format/Info                              : Audio Coding 3

Codec ID                                 : A_AC3

Duration                                 : 2 h 10 min

Bit rate mode                            : Constant

Bit rate                                 : 448 kb/s

Channel(s)                               : 6 channels

Channel positions                        : Front: L C R, Side: L R, LFE

Sampling rate                            : 48.0 kHz

Frame rate                               : 31.250 FPS (1536 SPF)

Bit depth                                : 16 bits

Compression mode                         : Lossy

Stream size                              : 418 MiB (7%)

Title                                    : Hindi Org BD 5.1 448 kbps By~Hammer~

Language                                 : Hindi

Default                                  : Yes

Forced                                   : Yes

Audio #2

Format                                   : AC-3

Format/Info                              : Audio Coding 3

Codec ID                                 : A_AC3

Duration                                 : 2 h 10 min

Bit rate mode                            : Constant

Bit rate                                 : 640 kb/s

Channel(s)                               : 6 channels

Channel positions                        : Front: L C R, Side: L R, LFE

Sampling rate                            : 48.0 kHz

Frame rate                               : 31.250 FPS (1536 SPF)

Bit depth                                : 16 bits

Compression mode                         : Lossy

Stream size                              : 597 MiB (10%)

Title                                    : English BD 5.1 640 kbps By~Hammer~

Language                                 : English

Default                                  : No

Forced                                   : No

Text

Format                                   : PGS

Muxing mode                              : zlib

Codec ID                                 : S_HDMV/PGS

Codec ID/Info                            : Picture based subtitle format used on BDs/HD-DVDs

Duration                                 : 1 h 57 min

Bit rate                                 : 10.1 kb/s

Count of elements                        : 1700

Stream size                              : 8.54 MiB (0%)

Title                                    : English PGS

Language                                 : English

Default                                  : Yes

Forced                                   : No







War for the Planet of the Apes (2017) 1080p BluRay x264 {Dual Audio} {Hindi-Eng BD 5.1} ESub By~Hammer~

General

Format                                   : Matroska

Format version                           : Version 4 / Version 2

File size                                : 5.97 GiB

Duration                                 : 2 h 20 min

Overall bit rate                         : 6 097 kb/s

Movie name                               : War for the Planet of the Apes (2017) 1080p BluRay x264 {Dual Audio} {Hindi-Eng BD 5.1} ESub By~Hammer~

Bit rate                                 : 5 000 kb/s

Width                                    : 1 920 pixels

Height                                   : 800 pixels

Display aspect ratio                     : 2.40:1

Frame rate mode                          : Constant

Frame rate                               : 23.976 (24000/1001) FPS

Title                                    : ~EncodeR~HammeR~

Language                                 : English

Default                                  : Yes

Forced                                   : Yes

Audio #1

Format                                   : AC-3

Format/Info                              : Audio Coding 3

Codec ID                                 : A_AC3

Duration                                 : 2 h 20 min

Bit rate mode                            : Constant

Bit rate                                 : 448 kb/s

Channel(s)                               : 6 channels

Channel positions                        : Front: L C R, Side: L R, LFE

Sampling rate                            : 48.0 kHz

Frame rate                               : 31.250 FPS (1536 SPF)

Bit depth                                : 16 bits

Compression mode                         : Lossy

Stream size                              : 449 MiB (7%)

Title                                    : Hindi Org BD 5.1 448 kbps By~Hammer~

Language                                 : Hindi

Default                                  : Yes

Forced                                   : Yes

Audio #2

Format                                   : AC-3

Format/Info                              : Audio Coding 3

Codec ID                                 : A_AC3

Duration                                 : 2 h 20 min

Bit rate mode                            : Constant

Bit rate                                 : 640 kb/s

Channel(s)                               : 6 channels

Channel positions                        : Front: L C R, Side: L R, LFE

Sampling rate                            : 48.0 kHz

Frame rate                               : 31.250 FPS (1536 SPF)

Bit depth                                : 16 bits

Compression mode                         : Lossy

Stream size                              : 642 MiB (10%)

Title                                    : English BD 5.1 640 kbps By~Hammer~

Language                                 : English

Default                                  : No

Forced                                   : No

Text

Format                                   : PGS

Muxing mode                              : zlib

Codec ID                                 : S_HDMV/PGS

Codec ID/Info                            : Picture based subtitle format used on BDs/HD-DVDs

Duration                                 : 2 h 8 min

Bit rate                                 : 7 270 b/s

Count of elements                        : 1496

Stream size                              : 6.71 MiB (0%)

Title                                    : English PGS

Language                                 : English

Default                                  : Yes

Forced                                   : No








Planet of the Apes CollectionDownload Torrent Magnet

#Planet #Apes #Collection