Picture.Of.Beauty.2017.1080p. Full Torrent Magnet Download

Download Torrent Picture.Of.Beauty.2017.1080p. Movie Full in HD Result. Movie Picture.Of.Beauty.2017.1080p. Torrent Download full. Movie Picture.Of.Beauty.2017.1080p. torrent Magnet Download Full. Picture.Of.Beauty.2017.1080p. Full Movie Torrent Download And Magnet Download For your PC And Mobiles. Latest Movie Picture.Of.Beauty.2017.1080p. Download Link In Bottom.

Torrent And Magnet Links Below

Quote:

*****************************************************************

*******************SCREENSHOTS(Click to enlarge)*******************

*******************************MEDIAINFO****************************

18+.Picture.Of.Beauty.2017.1080p.HDRip.x264.LLG.mp4

Format : MPEG-4

Format profile : Base Media

Codec ID : isom (isom/iso2/avc1/mp41)

File size : 929 MiB

Duration : 1 h 10 min

Overall bit rate mode : Variable

Overall bit rate : 1 849 kb/s

Recorded date : 2017

Writing application : Lavf58.29.100

Video

ID : 1

Format : AVC

Format/Info : Advanced Video Codec

Format profile : [email protected]
Format settings : CABAC / 1 Ref Frames

Format settings, CABAC : Yes

Format settings, Reference frames : 1 frame

Codec ID : avc1

Codec ID/Info : Advanced Video Coding

Duration : 1 h 10 min

Bit rate mode : Variable

Bit rate : 1 653 kb/s

Maximum bit rate : 5 100 kb/s

Width : 1 920 pixels

Height : 1 080 pixels

Display aspect ratio : 16:9

Frame rate mode : Constant

Frame rate : 23.976 (23976/1000) FPS

Color space : YUV

Chroma subsampling : 4:2:0

Bit depth : 8 bits

Scan type : Progressive

Bits/(Pixel*Frame) : 0.033

Stream size : 830 MiB (89%)

Codec configuration box : avcC

Audio

ID : 2

Format : AAC LC

Codec ID : mp4a-40-2

Duration : 1 h 10 min

Bit rate mode : Constant

Bit rate : 192 kb/s

Channel(s) : 2 channels

Channel layout : L R

Sampling rate : 48.0 kHz

Frame rate : 46.875 FPS (1024 SPF)

Compression mode : Lossy

Stream size : 96.8 MiB (10%)

Default : Yes

Alternate group : 1

********************************************************

Picture.Of.Beauty.2017.1080p.Download Torrent Magnet

#PictureOfBeauty20171080p