Picasso 2021 Marathi 720p Web Full Torrent Magnet Download

Download Torrent Picasso 2021 Marathi 720p Web Movie Full in HD Result. Movie Picasso 2021 Marathi 720p Web Torrent Download full. Movie Picasso 2021 Marathi 720p Web torrent Magnet Download Full. Picasso 2021 Marathi 720p Web Full Movie Torrent Download And Magnet Download For your PC And Mobiles. Latest Movie Picasso 2021 Marathi 720p Web Download Link In Bottom.

Torrent And Magnet Links Below










General

Complete name : Picasso 2021 Marathi 720p WebRip x264 AC3 5.1 ESubs [TMB].mp4

Format : MPEG-4

Format profile : Base Media / Version 2

Codec ID : mp42 (mp42/iso2/avc1/mp41)

File size : 1.50 GiB

Duration : 1 h 13 min

Overall bit rate mode : Variable

Overall bit rate : 2 911 kb/s

Video

Format : AVC

Format/Info : Advanced Video Codec

Format profile : [email protected]
Format settings : CABAC / 4 Ref Frames

Format settings, CABAC : Yes

Format settings, Reference : 4 frames

Codec ID : avc1

Codec ID/Info : Advanced Video Coding

Duration : 1 h 13 min

Source duration : 1 h 13 min

Bit rate : 2 269 kb/s

Width : 1 280 pixels

Height : 540 pixels

Display aspect ratio : 2.35:1

Original display aspect rat : 2.35:1

Frame rate mode : Variable

Frame rate : 24.000 FPS

Minimum frame rate : 13.705 FPS

Maximum frame rate : 24.000 FPS

Color space : YUV

Chroma subsampling : 4:2:0

Bit depth : 8 bits

Scan type : Progressive

Bits/(Pixel*Frame) : 0.137

Stream size : 1.17 GiB (78%)

Source stream size : 1.17 GiB (78%)

Audio

Format : E-AC-3

Format/Info : Enhanced AC-3

Commercial name : Dolby Digital Plus

Codec ID : ec-3

Duration : 1 h 13 min

Bit rate mode : Constant

Bit rate : 640 kb/s

Channel(s) : 6 channels

Channel layout : L R C LFE Ls Rs

Sampling rate : 48.0 kHz

Frame rate : 31.250 FPS (1536 SPF)

Compression mode : Lossy

Stream size : 338 MiB (22%)

Text

Format : Timed Text

Muxing mode : sbtl

Codec ID : tx3g

Duration : 1 h 9 min

Bit rate mode : Variable

Bit rate : 69 b/s

Stream size : 34.8 KiB (0%)

Source : Untouched [email protected]

Ripper : TMB

Uploaded & Shared by TMB

Seeding 24×7… Extreme Seeding…

Enjoy!

Picasso 2021 Marathi 720p WebDownload Torrent Magnet

#Picasso #Marathi #720p #Web