Picasso 2021 Marathi 1080p We Full Torrent Magnet Download

Download Torrent Picasso 2021 Marathi 1080p We Movie Full in HD Result. Movie Picasso 2021 Marathi 1080p We Torrent Download full. Movie Picasso 2021 Marathi 1080p We torrent Magnet Download Full. Picasso 2021 Marathi 1080p We Full Movie Torrent Download And Magnet Download For your PC And Mobiles. Latest Movie Picasso 2021 Marathi 1080p We Download Link In Bottom.

Torrent And Magnet Links Below











General

Complete name : Picasso 2021 Marathi 1080p WebRip x264 AC3 5.1 ESubs [TMB].mp4

Format : MPEG-4

Format profile : Base Media / Version 2

Codec ID : mp42 (mp42/iso2/avc1/mp41)

File size : 2.67 GiB

Duration : 1 h 13 min

Overall bit rate mode : Variable

Overall bit rate : 5 188 kb/s

Video

Format : AVC

Format/Info : Advanced Video Codec

Format profile : [email protected]
Format settings : CABAC / 4 Ref Frames

Format settings, CABAC : Yes

Format settings, Reference : 4 frames

Codec ID : avc1

Codec ID/Info : Advanced Video Coding

Duration : 1 h 13 min

Source duration : 1 h 13 min

Bit rate : 4 544 kb/s

Width : 1 920 pixels

Height : 812 pixels

Display aspect ratio : 2.35:1

Frame rate mode : Variable

Frame rate : 24.000 FPS

Minimum frame rate : 13.705 FPS

Maximum frame rate : 24.000 FPS

Color space : YUV

Chroma subsampling : 4:2:0

Bit depth : 8 bits

Scan type : Progressive

Bits/(Pixel*Frame) : 0.121

Stream size : 2.34 GiB (88%)

Source stream size : 2.34 GiB (88%)

Audio

Format : E-AC-3

Format/Info : Enhanced AC-3

Commercial name : Dolby Digital Plus

Codec ID : ec-3

Duration : 1 h 13 min

Bit rate mode : Constant

Bit rate : 640 kb/s

Channel(s) : 6 channels

Channel layout : L R C LFE Ls Rs

Sampling rate : 48.0 kHz

Frame rate : 31.250 FPS (1536 SPF)

Compression mode : Lossy

Stream size : 338 MiB (12%)

Text

Format : Timed Text

Muxing mode : sbtl

Codec ID : tx3g

Duration : 1 h 9 min

Bit rate mode : Variable

Bit rate : 69 b/s

Stream size : 34.8 KiB (0%)

Source : Untouched [email protected]

Ripper : TMB

Uploaded & Shared by TMB

Seeding 24×7… Extreme Seeding…

Enjoy!

Picasso 2021 Marathi 1080p WeDownload Torrent Magnet

#Picasso #Marathi #1080p