Peau de banane (1963) DVDrip Full Torrent Magnet Download

Download Torrent Peau de banane (1963) DVDrip Movie Full in HD Result. Movie Peau de banane (1963) DVDrip Torrent Download full. Movie Peau de banane (1963) DVDrip torrent Magnet Download Full. Peau de banane (1963) DVDrip Full Movie Torrent Download And Magnet Download For your PC And Mobiles. Latest Movie Peau de banane (1963) DVDrip Download Link In Bottom.

Torrent And Magnet Links Below

IMDB

Code:


General

Complete name : Peau.de.banane.(1963).DVDrip.(720x576p).AC3.[Borsalino].mkv

Format : Matroska

Format version : Version 4

File size : 6.13 GiB

Duration : 1 h 34 min

Overall bit rate mode : Variable

Overall bit rate : 9 318 kb/s

Movie name : Peau.de.banane.(1963).DVDrip.(720x576p).AC3.[Borsalino]
Writing application : mkvmerge v56.1.0 (‘My Friend’) 64-bit

Writing library : libebml v1.4.2 + libmatroska v1.6.4

Video

ID : 1

Format : MPEG Video

Format version : Version 2

Format profile : [email protected]
Format settings : CustomMatrix / BVOP

Format settings, BVOP : Yes

Format settings, Matrix : Custom

Format settings, GOP : M=3, N=12

Format settings, picture structure : Frame

Codec ID : V_MPEG2

Codec ID/Info : MPEG 1 or 2 Video

Duration : 1 h 34 min

Bit rate mode : Variable

Bit rate : 9 124 kb/s

Maximum bit rate : 9 300 kb/s

Width : 720 pixels

Height : 576 pixels

Display aspect ratio : 16:9

Original display aspect ratio : 2.40:1

Frame rate mode : Constant

Frame rate : 25.000 FPS

Standard : PAL

Color space : YUV

Chroma subsampling : 4:2:0

Bit depth : 8 bits

Scan type : Interlaced

Scan order : Top Field First

Compression mode : Lossy

Bits/(Pixel*Frame) : 0.880

Time code of first frame : 09:59:59:20

Time code source : Group of pictures header

GOP, Open/Closed : Open

Stream size : 6.00 GiB (98%)

Title : French

Language : French

Default : Yes

Forced : No

Audio

ID : 2

Format : AC-3

Format/Info : Audio Coding 3

Commercial name : Dolby Digital

Codec ID : A_AC3

Duration : 1 h 34 min

Bit rate mode : Constant

Bit rate : 192 kb/s

Channel(s) : 2 channels

Channel layout : L R

Sampling rate : 48.0 kHz

Frame rate : 31.250 FPS (1536 SPF)

Compression mode : Lossy

Stream size : 129 MiB (2%)

Title : French

Language : French

Service kind : Complete Main

Default : Yes

Forced : No

Spoken language

Subtitles (srt files)

None










Peau de banane (1963) DVDrip Download Torrent Magnet

#Peau #banane #DVDrip