Passengers (2016) 1080p 10bit Full Torrent Magnet Download

Download Torrent Passengers (2016) 1080p 10bit Movie Full in HD Result. Movie Passengers (2016) 1080p 10bit Torrent Download full. Movie Passengers (2016) 1080p 10bit torrent Magnet Download Full. Passengers (2016) 1080p 10bit Full Movie Torrent Download And Magnet Download For your PC And Mobiles. Latest Movie Passengers (2016) 1080p 10bit Download Link In Bottom.

Torrent And Magnet Links Below

There is a reason they woke up…

Passengers (2016) 1080p 10bit Bluray x265 HEVC [Org DD 5.1 Hindi + DD 5.1 English] MSubs ~ TombDoc

Code:

Format                                   : Matroska

Format version                           : Version 4

File size                                : 4.17 GiB

Duration                                 : 1 h 56 min

Overall bit rate                         : 5 139 kb/s

Video

ID                                       : 1

Format                                   : HEVC

Format/Info                              : High Efficiency Video Coding

Format profile                           : Main [email protected]@Main

Codec ID                                 : V_MPEGH/ISO/HEVC

Duration                                 : 1 h 56 min

Bit rate                                 : 4 001 kb/s

Width                                    : 1 920 pixels

Height                                   : 804 pixels

Display aspect ratio                     : 2.40:1

Frame rate mode                          : Constant

Frame rate                               : 23.976 (24000/1001) FPS

Color space                              : YUV

Chroma subsampling                       : 4:2:0

Bit depth                                : 10 bits

Bits/(Pixel*Frame)                       : 0.108

Stream size                              : 3.25 GiB (78%)

Writing library                          : x265M – 3.4+28-419182243:[Windows][GCC 10.2.0][64 bit] 10bit

Encoding settings                        : cpuid=1111039 / frame-threads=4 / numa-pools=24 / wpp / no-pmode / no-pme / no-psnr / no-ssim / log-level=2 / input-csp=1 / input-res=1920×804 / interlace=0 / total-frames=167136 / level-idc=0 / high-tier=1 / uhd-bd=0 / ref=5 / no-allow-non-conformance / no-repeat-headers / annexb / no-aud / no-hrd / info / hash=0 / no-temporal-layers / open-gop / min-keyint=23 / keyint=250 / gop-lookahead=0 / bframes=8 / b-adapt=2 / b-pyramid / bframe-bias=0 / rc-lookahead=100 / lookahead-slices=4 / scenecut=40 / hist-scenecut=0 / radl=0 / no-splice / no-intra-refresh / ctu=64 / min-cu-size=8 / rect / amp / max-tu-size=32 / tu-inter-depth=2 / tu-intra-depth=2 / limit-tu=1 / rdoq-level=2 / dynamic-rd=0.00 / ssim-rd / signhide / no-tskip / nr-intra=0 / nr-inter=0 / no-constrained-intra / strong-intra-smoothing / max-merge=5 / limit-refs=3 / limit-modes / me=3 / subme=6 / merange=57 / temporal-mvp / no-frame-dup / no-hme / weightp / no-weightb / no-analyze-src-pics / deblock=0:0 / sao / no-sao-non-deblock / rd=4 / selective-sao=4 / no-early-skip / rskip / no-fast-intra / no-tskip-fast / no-cu-lossless / no-b-intra / no-splitrd-skip / rdpenalty=0 / psy-rd=0.00 / psy-rdoq=2.00 / no-rd-refine / no-lossless / cbqpoffs=0 / crqpoffs=0 / rc=abr / bitrate=4000 / qcomp=0.60 / qpstep=4 / stats-write=0 / stats-read=2 / cplxblur=20.0 / qblur=0.5 / ipratio=1.40 / pbratio=1.30 / aq-mode=4 / aq-strength=1.00 / cutree / zone-count=0 / no-strict-cbr / qg-size=32 / rc-grain / qpmax=69 / qpmin=0 / no-const-vbv / sar=0 / overscan=0 / videoformat=5 / range=0 / colorprim=2 / transfer=2 / colormatrix=2 / chromaloc=0 / display-window=0 / cll=0,0 / min-luma=0 / max-luma=1023 / log2-max-poc-lsb=8 / vui-timing-info / vui-hrd-info / slices=1 / no-opt-qp-pps / no-opt-ref-list-length-pps / no-multi-pass-opt-rps / scenecut-bias=0.05 / hist-threshold=0.03 / no-opt-cu-delta-qp / aq-motion / no-hdr10 / no-hdr10-opt / no-dhdr10-opt / no-idr-recovery-sei / analysis-reuse-level=0 / analysis-save-reuse-level=0 / analysis-load-reuse-level=0 / scale-factor=0 / refine-intra=0 / refine-inter=0 / refine-mv=1 / refine-ctu-distortion=0 / no-limit-sao / ctu-info=0 / no-lowpass-dct / refine-analysis-type=0 / copy-pic=1 / max-ausize-factor=1.0 / no-dynamic-refine / no-single-sei / hevc-aq / no-svt / no-field / qp-adaptation-range=1.00 / no-scenecut-aware-qpconformance-window-offsets / right=0 / bottom=0 / decoder-max-rate=0 / no-vbv-live-multi-pass

Default                                  : Yes

Forced                                   : No

Audio #1

ID                                       : 2

Format                                   : E-AC-3

Format/Info                              : Enhanced AC-3

Commercial name                          : Dolby Digital Plus

Codec ID                                 : A_EAC3

Duration                                 : 1 h 56 min

Bit rate mode                            : Constant

Bit rate                                 : 640 kb/s

Channel(s)                               : 6 channels

Channel layout                           : L R C LFE Ls Rs

Sampling rate                            : 48.0 kHz

Frame rate                               : 31.250 FPS (1536 SPF)

Compression mode                         : Lossy

Delay relative to video                  : 1 s 454 ms

Stream size                              : 532 MiB (12%)

Title                                    : Org Amz DD+ 5.1 640Kbps ~ TombDoc

Language                                 : Hindi

Service kind                             : Complete Main

Default                                  : Yes

Forced                                   : Yes

Audio #2

ID                                       : 3

Format                                   : E-AC-3

Format/Info                              : Enhanced AC-3

Commercial name                          : Dolby Digital Plus

Codec ID                                 : A_EAC3

Duration                                 : 1 h 56 min

Bit rate mode                            : Constant

Bit rate                                 : 448 kb/s

Channel(s)                               : 6 channels

Channel layout                           : L R C LFE Ls Rs

Sampling rate                            : 48.0 kHz

Frame rate                               : 31.250 FPS (1536 SPF)

Compression mode                         : Lossy

Stream size                              : 372 MiB (9%)

Title                                    : DD+ 5.1 English

Language                                 : English

Service kind                             : Complete Main

Default                                  : No

Forced                                   : No

Text #1

ID                                       : 4

Format                                   : PGS

Muxing mode                              : zlib

Codec ID                                 : S_HDMV/PGS

Codec ID/Info                            : Picture based subtitle format used on BDs/HD-DVDs

Duration                                 : 1 h 54 min

Bit rate                                 : 21.3 kb/s

Count of elements                        : 2590

Stream size                              : 17.4 MiB (0%)

Title                                    : Hindi BD-PGS

Language                                 : Hindi

Default                                  : Yes

Forced                                   : Yes

Text #2

ID                                       : 5

Format                                   : PGS

Muxing mode                              : zlib

Codec ID                                 : S_HDMV/PGS

Codec ID/Info                            : Picture based subtitle format used on BDs/HD-DVDs

Duration                                 : 1 h 43 min

Bit rate                                 : 36.4 kb/s

Count of elements                        : 2474

Stream size                              : 26.8 MiB (1%)

Title                                    : Eng BD-PGS

Language                                 : English

Default                                  : No

Forced                                   : No

Text #3

ID                                       : 6

Format                                   : PGS

Muxing mode                              : zlib

Codec ID                                 : S_HDMV/PGS

Codec ID/Info                            : Picture based subtitle format used on BDs/HD-DVDs

Duration                                 : 1 h 48 min

Bit rate                                 : 46.0 kb/s

Count of elements                        : 3240

Stream size                              : 35.6 MiB (1%)

Title                                    : Eng BD-PGS-SDH

Language                                 : English

Default                                  : No

Forced                                   : No

Menu

00:00:00.000                             : en:00:00:00.000

00:07:04.674                             : en:00:07:04.674

00:14:38.211                             : en:00:14:38.211

00:20:33.649                             : en:00:20:33.649

00:25:06.338                             : en:00:25:06.338

00:30:30.662                             : en:00:30:30.662

00:40:47.987                             : en:00:40:47.987

00:50:23.020                             : en:00:50:23.020

00:57:28.945                             : en:00:57:28.945

01:02:54.813                             : en:01:02:54.813

01:10:47.160                             : en:01:10:47.160

01:17:48.664                             : en:01:17:48.664

01:25:17.029                             : en:01:25:17.029

01:31:45.041                             : en:01:31:45.041

01:37:53.242                             : en:01:37:53.242

01:42:18.549                             : en:01:42:18.549

Code:

Source: Passengers 2016 1080p Blu-ray Remux AVC DTS-HD MA 5.1 – KRaLiMaRKo

EnjOyY FiNal the Quality…


Passengers (2016) 1080p 10bitDownload Torrent Magnet

#Passengers #1080p #10bit