Palmer.2021.iTA-ENG.WEBDL.216 Full Torrent Magnet Download

Download Torrent Palmer.2021.iTA-ENG.WEBDL.216 Movie Full in HD Result. Movie Palmer.2021.iTA-ENG.WEBDL.216 Torrent Download full. Movie Palmer.2021.iTA-ENG.WEBDL.216 torrent Magnet Download Full. Palmer.2021.iTA-ENG.WEBDL.216 Full Movie Torrent Download And Magnet Download For your PC And Mobiles. Latest Movie Palmer.2021.iTA-ENG.WEBDL.216 Download Link In Bottom.

Torrent And Magnet Links Below

DATI – TRAMA

USA, 2021

Genere: Drammatico

durata 110′

Regia di Fisher Stevens

Con Justin Timberlake, Ryder Allen, June Squibb, Juno Temple, Dean Winters, Alisha Wainwright, Wynn Everett, Jesse C. Boyd, Charmin Lee.

Eddie Palmer, ex star del football ai tempi del liceo, è passato dall’essere l’eroe della sua cittadina al divenire un criminale con 12 anni di condanna scontata in un penitenziario. Rientrato a casa in Louisiana, si trasferisce a vivere da Vivian, la nonna che lo ha cresciuto, cercando di ricominciare una nuova vita. Ossessionato dai suoi giorni di gloria e dai sospetti dei componenti della sua piccola comunità cittadina, vede le cose complicarsi quando Shelly, la vicina di casa della nonna, scompare per un lungo lasso di tempo lasciandogli il gravoso compito di badare al figlioletto Sam, un bambino di sette anni spesso bersaglio di bullismo.

IMMAGINI



REPORT

General

Unique ID : 243328549264135722494632263609518852723 (0xB70F5FBA37CB5BC0FD8C0F9C72FF0A73)

Complete name : E:Palmer.2021.iTA-ENG.WEBDL.2160p.x265-CYBER.mkv

Format : Matroska

Format version : Version 4

File size : 21.3 GiB

Duration : 1 h 50 min

Overall bit rate : 27.4 Mb/s

Encoded date : UTC 2021-01-31 19:46:15

Writing application : mkvmerge v53.0.0 (‘Fool’s Gold’) 64-bit

Writing library : libebml v1.4.1 + libmatroska v1.6.2

Video

ID : 1

Format : HEVC

Format/Info : High Efficiency Video Coding

Format profile : Main [email protected]@High

HDR format : SMPTE ST 2086, HDR10 compatible

Codec ID : V_MPEGH/ISO/HEVC

Duration : 1 h 50 min

Bit rate : 24.6 Mb/s

Width : 3 840 pixels

Height : 1 600 pixels

Display aspect ratio : 2.40:1

Frame rate mode : Constant

Frame rate : 23.976 (24000/1001) FPS

Color space : YUV

Chroma subsampling : 4:2:0 (Type 2)

Bit depth : 10 bits

Bits/(Pixel*Frame) : 0.167

Stream size : 19.1 GiB (90%)

Title : 2160p

Language : English

Default : Yes

Forced : No

Color range : Limited

Color primaries : BT.2020

Transfer characteristics : PQ

Matrix coefficients : BT.2020 non-constant

Mastering display color primaries : Display P3

Mastering display luminance : min: 0.0050 cd/m2, max: 1000 cd/m2

Maximum Content Light Level : 1018 cd/m2

Maximum Frame-Average Light Level : 120 cd/m2

Audio #1

ID : 2

Format : E-AC-3 JOC

Format/Info : Enhanced AC-3 with Joint Object Coding

Commercial name : Dolby Digital Plus with Dolby Atmos

Codec ID : A_EAC3

Duration : 1 h 50 min

Bit rate mode : Constant

Bit rate : 768 kb/s

Channel(s) : 6 channels

Channel layout : L R C LFE Ls Rs

Sampling rate : 48.0 kHz

Frame rate : 31.250 FPS (1536 SPF)

Compression mode : Lossy

Stream size : 609 MiB (3%)

Title : E-AC3

Language : Italian

Service kind : Complete Main

Default : Yes

Forced : No

Complexity index : 16

Number of dynamic objects : 15

Bed channel count : 1 channel

Bed channel configuration : LFE

Audio #2

ID : 3

Format : AC-3

Format/Info : Audio Coding 3

Commercial name : Dolby Digital

Codec ID : A_AC3

Duration : 1 h 50 min

Bit rate mode : Constant

Bit rate : 640 kb/s

Channel(s) : 6 channels

Channel layout : L R C LFE Ls Rs

Sampling rate : 48.0 kHz

Frame rate : 31.250 FPS (1536 SPF)

Compression mode : Lossy

Stream size : 508 MiB (2%)

Title : AC3

Language : Italian

Service kind : Complete Main

Default : No

Forced : No

Audio #3

ID : 4

Format : E-AC-3 JOC

Format/Info : Enhanced AC-3 with Joint Object Coding

Commercial name : Dolby Digital Plus with Dolby Atmos

Codec ID : A_EAC3

Duration : 1 h 50 min

Bit rate mode : Constant

Bit rate : 768 kb/s

Channel(s) : 6 channels

Channel layout : L R C LFE Ls Rs

Sampling rate : 48.0 kHz

Frame rate : 31.250 FPS (1536 SPF)

Compression mode : Lossy

Stream size : 609 MiB (3%)

Title : E-AC3

Language : English

Service kind : Complete Main

Default : No

Forced : No

Complexity index : 16

Number of dynamic objects : 15

Bed channel count : 1 channel

Bed channel configuration : LFE

Audio #4

ID : 5

Format : AC-3

Format/Info : Audio Coding 3

Commercial name : Dolby Digital

Codec ID : A_AC3

Duration : 1 h 50 min

Bit rate mode : Constant

Bit rate : 640 kb/s

Channel(s) : 6 channels

Channel layout : L R C LFE Ls Rs

Sampling rate : 48.0 kHz

Frame rate : 31.250 FPS (1536 SPF)

Compression mode : Lossy

Stream size : 508 MiB (2%)

Title : AC3

Language : English

Service kind : Complete Main

Default : No

Forced : No

Text #1

ID : 6

Format : UTF-8

Codec ID : S_TEXT/UTF8

Codec ID/Info : UTF-8 Plain Text

Duration : 1 h 33 min

Bit rate : 0 b/s

Count of elements : 19

Stream size : 525 Bytes (0%)

Title : Forced

Language : Italian

Default : No

Forced : Yes

Text #2

ID : 7

Format : UTF-8

Codec ID : S_TEXT/UTF8

Codec ID/Info : UTF-8 Plain Text

Duration : 1 h 48 min

Bit rate : 55 b/s

Count of elements : 1481

Stream size : 44.5 KiB (0%)

Title : Regular

Language : Italian

Default : No

Forced : No

Text #3

ID : 8

Format : UTF-8

Codec ID : S_TEXT/UTF8

Codec ID/Info : UTF-8 Plain Text

Duration : 1 h 47 min

Bit rate : 66 b/s

Count of elements : 1725

Stream size : 52.4 KiB (0%)

Title : Non udenti

Language : English

Default : No

Forced : No

GOOD DOWNLOAD

Palmer.2021.iTA-ENG.WEBDL.216Download Torrent Magnet

#Palmer2021iTAENGWEBDL216