Palm.Springs.2020.1080p.BluRa Full Torrent Magnet Download

Download Torrent Palm.Springs.2020.1080p.BluRa Movie Full in HD Result. Movie Palm.Springs.2020.1080p.BluRa Torrent Download full. Movie Palm.Springs.2020.1080p.BluRa torrent Magnet Download Full. Palm.Springs.2020.1080p.BluRa Full Movie Torrent Download And Magnet Download For your PC And Mobiles. Latest Movie Palm.Springs.2020.1080p.BluRa Download Link In Bottom.

Torrent And Magnet Links Below

https://www.imdb.com/title/tt9484998/

Quote:

Video

ID : 1

Format : AVC

Format/Info : Advanced Video Codec

Format profile : [email protected]
Format settings : CABAC / 5 Ref Frames

Format settings, CABAC : Yes

Format settings, Reference frames : 5 frames

Codec ID : V_MPEG4/ISO/AVC

Duration : 1 h 29 min

Bit rate : 7 660 kb/s

Width : 1 920 pixels

Height : 804 pixels

Display aspect ratio : 2.40:1

Frame rate mode : Constant

Frame rate : 24.000 FPS

Color space : YUV

Chroma subsampling : 4:2:0

Bit depth : 8 bits

Scan type : Progressive

Bits/(Pixel*Frame) : 0.207

Stream size : 4.81 GiB (81%)

Writing library : x264 core 161 r3027 4121277

Encoding settings : cabac=1 / ref=5 / deblock=1:-3:-3 / analyse=0x3:0x133 / me=umh / subme=10 / psy=1 / psy_rd=1.00:0.15 / mixed_ref=1 / me_range=24 / chroma_me=1 / trellis=2 / 8x8dct=1 / cqm=0 / deadzone=21,11 / fast_pskip=1 / chroma_qp_offset=-3 / threads=18 / lookahead_threads=3 / sliced_threads=0 / nr=0 / decimate=1 / interlaced=0 / bluray_compat=0 / constrained_intra=0 / bframes=8 / b_pyramid=2 / b_adapt=2 / b_bias=0 / direct=3 / weightb=1 / open_gop=0 / weightp=2 / keyint=250 / keyint_min=24 / scenecut=40 / intra_refresh=0 / rc_lookahead=60 / rc=crf / mbtree=1 / crf=17.0 / qcomp=0.60 / qpmin=0 / qpmax=69 / qpstep=4 / ip_ratio=1.40 / aq=3:0.70

Language : English

Default : Yes

Forced : No

Audio

ID : 2

Format : DTS XLL

Format/Info : Digital Theater Systems

Commercial name : DTS-HD Master Audio

Codec ID : A_DTS

Duration : 1 h 29 min

Bit rate mode : Variable

Bit rate : 1 744 kb/s

Channel(s) : 6 channels

Channel layout : C L R Ls Rs LFE

Sampling rate : 48.0 kHz

Frame rate : 93.750 FPS (512 SPF)

Bit depth : 16 bits

Compression mode : Lossless

Stream size : 1.10 GiB (19%)

Language : English

Default : Yes

Forced : No

Text #1

ID : 3

Format : UTF-8

Codec ID : S_TEXT/UTF8

Codec ID/Info : UTF-8 Plain Text

Duration : 1 h 29 min

Bit rate : 67 b/s

Count of elements : 1558

Stream size : 44.4 KiB (0%)

Title : English

Language : English

Default : No

Forced : No

Text #2

ID : 4

Format : UTF-8

Codec ID : S_TEXT/UTF8

Codec ID/Info : UTF-8 Plain Text

Duration : 1 h 29 min

Bit rate : 73 b/s

Count of elements : 1802

Stream size : 48.5 KiB (0%)

Title : English SDH

Language : English

Default : No

Forced : No

Text #3

ID : 5

Format : UTF-8

Codec ID : S_TEXT/UTF8

Codec ID/Info : UTF-8 Plain Text

Duration : 1 h 29 min

Bit rate : 74 b/s

Count of elements : 1920

Stream size : 49.3 KiB (0%)

Title : Spanish SDH

Language : Spanish

Default : No

Forced : No

Text #4

ID : 6

Format : PGS

Muxing mode : zlib

Codec ID : S_HDMV/PGS

Codec ID/Info : Picture based subtitle format used on BDs/HD-DVDs

Duration : 1 h 24 min

Bit rate : 4 519 b/s

Count of elements : 1499

Stream size : 2.74 MiB (0%)

Title : Swedish

Language : Swedish

Default : No

Forced : No

Menu

00:00:00.000 : en:00:00:00.000

00:09:48.000 : en:00:09:48.000

00:19:12.500 : en:00:19:12.500

00:28:15.000 : en:00:28:15.000

00:41:01.000 : en:00:41:01.000

00:47:37.000 : en:00:47:37.000

00:59:52.500 : en:00:59:52.500

01:12:17.500 : en:01:12:17.500

01:23:39.500 : en:01:23:39.500

Palm.Springs.2020.1080p.BluRaDownload Torrent Magnet

#PalmSprings20201080pBluRa