Out.2020.720p.WEB-DL.h264.AC3 Full Torrent Magnet Download

Download Torrent Out.2020.720p.WEB-DL.h264.AC3 Movie Full in HD Result. Movie Out.2020.720p.WEB-DL.h264.AC3 Torrent Download full. Movie Out.2020.720p.WEB-DL.h264.AC3 torrent Magnet Download Full. Out.2020.720p.WEB-DL.h264.AC3 Full Movie Torrent Download And Magnet Download For your PC And Mobiles. Latest Movie Out.2020.720p.WEB-DL.h264.AC3 Download Link In Bottom.

Torrent And Magnet Links Below

Release: Out.2020.720p.WEB-DL.h264.AC3.HORiZON-ArtSubs

IMDB: https://www.imdb.com/title/tt12366826

Subtitle: English (soft)

Plot: On an average day, Greg’s life is filled with family, love and a rambunctious little dog – but despite all of this, Greg has a secret. Today is different, because he might learn that he has nothing to hide.

General

Complete name : Out.2020.720p.WEB-DL.h264.AC3.HORiZON-ArtSubs.mkv

Format : Matroska

Format version : Version 4

File size : 314 MiB

Duration : 9 min 31 s

Overall bit rate mode : Variable

Overall bit rate : 4 616 kb/s

Encoded date : UTC 2021-02-11 21:44:48

Writing application : mkvmerge v50.0.0 (‘Awakenings’) 64-bit

Writing library : libebml v1.4.0 + libmatroska v1.6.2

Video

ID : 1

Format : AVC

Format/Info : Advanced Video Codec

Format profile : [email protected]
Format settings : CABAC / 4 Ref Frames

Format settings, CABAC : Yes

Format settings, Reference : 4 frames

Codec ID : V_MPEG4/ISO/AVC

Duration : 9 min 31 s

Bit rate mode : Variable

Bit rate : 4 230 kb/s

Maximum bit rate : 6 375 kb/s

Width : 1 280 pixels

Height : 720 pixels

Display aspect ratio : 16:9

Frame rate mode : Variable

Frame rate : 23.976 FPS

Color space : YUV

Chroma subsampling : 4:2:0

Bit depth : 8 bits

Scan type : Progressive

Bits/(Pixel*Frame) : 0.191

Stream size : 288 MiB (92%)

Default : Yes

Forced : No

Color range : Limited

Color primaries : BT.709

Transfer characteristics : BT.709

Matrix coefficients : BT.709

Audio

ID : 2

Format : AC-3

Format/Info : Audio Coding 3

Commercial name : Dolby Digital

Codec ID : A_AC3

Duration : 9 min 31 s

Bit rate mode : Constant

Bit rate : 384 kb/s

Channel(s) : 6 channels

Channel layout : L R C LFE Ls Rs

Sampling rate : 48.0 kHz

Frame rate : 31.250 FPS (1536 SPF)

Compression mode : Lossy

Stream size : 26.2 MiB (8%)

Language : English

Service kind : Complete Main

Default : Yes

Forced : No

Text

ID : 3

Format : UTF-8

Codec ID : S_TEXT/UTF8

Codec ID/Info : UTF-8 Plain Text

Duration : 7 min 44 s

Bit rate : 34 b/s

Count of elements : 77

Stream size : 1.97 KiB (0%)

Language : English

Default : Yes

Forced : No

SCREENSHOTS:




Out.2020.720p.WEB-DL.h264.AC3Download Torrent Magnet

#Out2020720pWEBDLh264AC3