Oslo.2021.HDRip.XviD.B4ND1T69 Full Torrent Magnet Download

Download Torrent Oslo.2021.HDRip.XviD.B4ND1T69 Movie Full in HD Result. Movie Oslo.2021.HDRip.XviD.B4ND1T69 Torrent Download full. Movie Oslo.2021.HDRip.XviD.B4ND1T69 torrent Magnet Download Full. Oslo.2021.HDRip.XviD.B4ND1T69 Full Movie Torrent Download And Magnet Download For your PC And Mobiles. Latest Movie Oslo.2021.HDRip.XviD.B4ND1T69 Download Link In Bottom.

Torrent And Magnet Links Below

Oslo.2021.HDRip.XviD.B4ND1T69

Director: Bartlett Sher

Writer: J.T. Rogers

Stars: Ruth Wilson, Andrew Scott, Jeff Wilbusch

Plot/Story:

Recounts the true-life, previously secret, back-channel negotiations in the development of the pivotal 1990s Oslo Peace Accords between Israel and the

Palestinian Liberation Organization.

General

Complete name : Oslo.2021.HDRip.XviD.B4ND1T69.avi

Format : AVI

Format/Info : Audio Video Interleave

File size : 802 MiB

Duration : 1 h 58 min

Overall bit rate : 950 kb/s

Subtitles : Yes…Included(HI)

Video

ID : 0

Format : MPEG-4 Visual

Format profile : Advanced [email protected]
Format settings, BVOP : 2

Format settings, QPel : No

Format settings, GMC : No warppoints

Format settings, Matrix : Default (H.263)

Codec ID : XVID

Codec ID/Hint : XviD

Duration : 1 h 58 min

Bit rate : 809 kb/s

Width : 720 pixels

Height : 352 pixels

Display aspect ratio : 2.045

Frame rate : 23.976 (24000/1001) FPS

Color space : YUV

Chroma subsampling : 4:2:0

Bit depth : 8 bits

Scan type : Progressive

Compression mode : Lossy

Bits/(Pixel*Frame) : 0.133

Stream size : 683 MiB (85%)

Writing library : XviD 64

Audio

ID : 1

Format : MPEG Audio

Format version : Version 1

Format profile : Layer 3

Codec ID : 55

Codec ID/Hint : MP3

Duration : 1 h 58 min

Bit rate mode : Constant

Bit rate : 128 kb/s

Channel(s) : 2 channels

Sampling rate : 48.0 kHz

Compression mode : Lossy

Stream size : 108 MiB (13%)

Alignment : Aligned on interleaves

Interleave, duration : 24 ms (0.58 video frame)

Screenshots:









Please Seed For As Long As Possible

Or At Least 1:1 Ratio…Thanks

Enjoy Peeps

Oslo.2021.HDRip.XviD.B4ND1T69Download Torrent Magnet

#Oslo2021HDRipXviDB4ND1T69