Onward (2020) 1080p 10bit Blu Full Torrent Magnet Download

Download Torrent Onward (2020) 1080p 10bit Blu Movie Full in HD Result. Movie Onward (2020) 1080p 10bit Blu Torrent Download full. Movie Onward (2020) 1080p 10bit Blu torrent Magnet Download Full. Onward (2020) 1080p 10bit Blu Full Movie Torrent Download And Magnet Download For your PC And Mobiles. Latest Movie Onward (2020) 1080p 10bit Blu Download Link In Bottom.

Torrent And Magnet Links Below

Cometh Soon…

Onward (2020) 1080p 10bit Bluray x265 HEVC English DDP 5.1 ESubs ~ TombDoc

Code:

Format : Matroska

Format version : Version 4

File size : 3.46 GiB

Duration : 1 h 42 min

Overall bit rate : 4 835 kb/s

Video

ID : 1

Format : HEVC

Format/Info : High Efficiency Video Coding

Format profile : Main [email protected]@Main

Codec ID : V_MPEGH/ISO/HEVC

Duration : 1 h 42 min

Bit rate : 4 002 kb/s

Width : 1 920 pixels

Height : 804 pixels

Display aspect ratio : 2.40:1

Frame rate mode : Constant

Frame rate : 23.976 (24000/1001) FPS

Color space : YUV

Chroma subsampling : 4:2:0

Bit depth : 10 bits

Bits/(Pixel*Frame) : 0.108

Stream size : 2.86 GiB (83%)

Writing library : x265M – 3.4+28-419182243:[Windows][GCC 10.2.0][64 bit] 10bit

Encoding settings : cpuid=1111039 / frame-threads=4 / numa-pools=24 / wpp / no-pmode / no-pme / no-psnr / no-ssim / log-level=2 / input-csp=1 / input-res=1920×804 / interlace=0 / total-frames=147246 / level-idc=0 / high-tier=1 / uhd-bd=0 / ref=5 / no-allow-non-conformance / no-repeat-headers / annexb / no-aud / no-hrd / info / hash=0 / no-temporal-layers / open-gop / min-keyint=23 / keyint=250 / gop-lookahead=0 / bframes=8 / b-adapt=2 / b-pyramid / bframe-bias=0 / rc-lookahead=100 / lookahead-slices=4 / scenecut=40 / hist-scenecut=0 / radl=0 / no-splice / no-intra-refresh / ctu=64 / min-cu-size=8 / rect / amp / max-tu-size=32 / tu-inter-depth=1 / tu-intra-depth=1 / limit-tu=0 / rdoq-level=2 / dynamic-rd=0.00 / ssim-rd / signhide / no-tskip / nr-intra=0 / nr-inter=0 / no-constrained-intra / strong-intra-smoothing / max-merge=5 / limit-refs=3 / limit-modes / me=3 / subme=6 / merange=57 / temporal-mvp / no-frame-dup / no-hme / weightp / no-weightb / no-analyze-src-pics / deblock=0:0 / sao / no-sao-non-deblock / rd=4 / selective-sao=4 / no-early-skip / rskip / no-fast-intra / no-tskip-fast / no-cu-lossless / no-b-intra / no-splitrd-skip / rdpenalty=0 / psy-rd=0.00 / psy-rdoq=2.00 / no-rd-refine / no-lossless / cbqpoffs=0 / crqpoffs=0 / rc=abr / bitrate=4000 / qcomp=0.60 / qpstep=4 / stats-write=0 / stats-read=2 / cplxblur=20.0 / qblur=0.5 / ipratio=1.40 / pbratio=1.30 / aq-mode=4 / aq-strength=1.00 / cutree / zone-count=0 / no-strict-cbr / qg-size=32 / rc-grain / qpmax=69 / qpmin=0 / no-const-vbv / sar=0 / overscan=0 / videoformat=5 / range=0 / colorprim=2 / transfer=2 / colormatrix=2 / chromaloc=0 / display-window=0 / cll=0,0 / min-luma=0 / max-luma=1023 / log2-max-poc-lsb=8 / vui-timing-info / vui-hrd-info / slices=1 / no-opt-qp-pps / no-opt-ref-list-length-pps / no-multi-pass-opt-rps / scenecut-bias=0.05 / hist-threshold=0.03 / no-opt-cu-delta-qp / aq-motion / no-hdr10 / no-hdr10-opt / no-dhdr10-opt / no-idr-recovery-sei / analysis-reuse-level=0 / analysis-save-reuse-level=0 / analysis-load-reuse-level=0 / scale-factor=0 / refine-intra=0 / refine-inter=0 / refine-mv=1 / refine-ctu-distortion=0 / no-limit-sao / ctu-info=0 / no-lowpass-dct / refine-analysis-type=0 / copy-pic=1 / max-ausize-factor=1.0 / no-dynamic-refine / no-single-sei / hevc-aq / no-svt / no-field / qp-adaptation-range=1.00 / no-scenecut-aware-qpconformance-window-offsets / right=0 / bottom=0 / decoder-max-rate=0 / no-vbv-live-multi-pass

Default : Yes

Forced : No

Audio

ID : 2

Format : E-AC-3

Format/Info : Enhanced AC-3

Commercial name : Dolby Digital Plus

Codec ID : A_EAC3

Duration : 1 h 42 min

Bit rate mode : Constant

Bit rate : 768 kb/s

Channel(s) : 6 channels

Channel layout : L R C LFE Ls Rs

Sampling rate : 48.0 kHz

Frame rate : 31.250 FPS (1536 SPF)

Compression mode : Lossy

Stream size : 562 MiB (16%)

Title : English DD+ 5.1 768Kbps ~ TombDoc

Language : English

Service kind : Complete Main

Default : No

Forced : No

Text #1

ID : 3

Format : PGS

Muxing mode : zlib

Codec ID : S_HDMV/PGS

Codec ID/Info : Picture based subtitle format used on BDs/HD-DVDs

Duration : 1 h 41 min

Bit rate : 37.6 kb/s

Count of elements : 2734

Stream size : 27.2 MiB (1%)

Title : Eng BD-PGS

Language : English

Default : No

Forced : No

Text #2

ID : 4

Format : PGS

Muxing mode : zlib

Codec ID : S_HDMV/PGS

Codec ID/Info : Picture based subtitle format used on BDs/HD-DVDs

Duration : 1 h 41 min

Bit rate : 47.8 kb/s

Count of elements : 3814

Stream size : 34.6 MiB (1%)

Title : Eng BD-PGS-SDH

Language : English

Default : Yes

Forced : Yes

Text #3

ID : 5

Format : PGS

Muxing mode : zlib

Codec ID : S_HDMV/PGS

Codec ID/Info : Picture based subtitle format used on BDs/HD-DVDs

Duration : 1 h 41 min

Bit rate : 65.3 kb/s

Count of elements : 3448

Stream size : 47.6 MiB (1%)

Title : Commentary

Language : English

Default : No

Forced : No

Text #4

ID : 6

Format : PGS

Muxing mode : zlib

Codec ID : S_HDMV/PGS

Codec ID/Info : Picture based subtitle format used on BDs/HD-DVDs

Duration : 1 h 41 min

Bit rate : 70.0 kb/s

Count of elements : 3586

Stream size : 51.0 MiB (1%)

Title : Commentary-SDH

Language : English

Default : No

Forced : No

Menu

00:00:00.000 : en:Prologue

00:02:30.025 : en:Chaotic House

00:07:06.384 : en:Dad’s Legacy

00:08:14.327 : en:School Fail

00:12:45.014 : en:Tape Recorder

00:14:53.726 : en:The Gift

00:19:21.035 : en:Conjuring Dad

00:23:46.049 : en:Off We Go

00:25:34.741 : en:Mom Finds Note

00:26:11.111 : en:Loosen Up

00:27:25.435 : en:Manticore’s Tavern

00:30:02.133 : en:Falen Idol

00:32:49.134 : en:The Plan

00:34:43.623 : en:Mom and Manticore

00:36:40.782 : en:Bigger Man

00:40:41.981 : en:Gas Station

00:42:48.732 : en:The Curse

00:44:02.139 : en:Sprite Insult

00:45:41.113 : en:Driving Test

00:47:49.158 : en:Honesty

00:52:01.368 : en:Dance Fight

00:55:12.142 : en:Pawn Shop

00:57:23.940 : en:Trust Bridge

01:02:23.322 : en:Change of Plans

01:04:02.964 : en:Sacrifice

01:07:13.070 : en:Following Ravens

01:08:49.041 : en:Under-ground

01:10:06.160 : en:To the Skies

01:11:12.267 : en:Reward

01:13:13.055 : en:Working Together

01:15:58.720 : en:Lowest Low

01:17:37.027 : en:Father Figure

01:20:26.321 : en:Dragon High

01:25:01.262 : en:Master Wizard

01:26:59.589 : en:Meeting Dad

01:30:10.780 : en:Epilogue

01:32:51.899 : en:Credits

Code:

Source: Onward 2020 1080p Blu-ray Remux AVC Atmos-E.N.D

EnjOyY the Qulaity…


Onward (2020) 1080p 10bit BluDownload Torrent Magnet

#Onward #1080p #10bit #Blu